Классический форум-трекер
canvas not supported
Нас вместе: 4 232 306

Одиннадцатое сентября 1683 года / 11 settembre 1683 / Bitwa pod Wiedniem (2012) DVDRip


 
 
RSS
Начать новую тему   Ответить на тему    Торрент-трекер NNM-Club -> Зарубежное кино -> Зарубежные Фильмы (SD)
Автор Сообщение
eXPpectant ®
Стаж: 14 лет 5 мес.
Сообщений: 2457
Ratio: 1628.264
Раздал: 18.08 TB
Поблагодарили: 308063
100%
Откуда: Нижний Тагил + Дмитров
russia.gif
Одиннадцатое сентября 1683 года / 11 settembre 1683 / Bitwa pod Wiedniem (2012) DVDRip
Русское название: Одиннадцатое сентября 1683 года
Оригинальное название: 11 settembre 1683 / Bitwa pod Wiedniem
Год выпуска: 2012
Производство: Италия, Польша
Жанр: Драма, Приключения, История
Описание фильма:
Летом 1683-го года 300 тысяч солдат Османской империи под командованием великого визиря Кара-Мустафы начали осаду Вены. Обладание этим городом стало бы первым шагом к покорению всей Европы. Вену защищала лишь горстка солдат, император Леопольд трусил и намеревался покинуть город. Казалось, что Христианский мир не устоит против армии, равной по численности которой мир еще не видел...
Режиссер: Ренцо Мартинелли
Актеры: Ф. Мюррэй Абрахам, Йорго Воягис, Антонио Цупо, Кристина Серафини, Ежи Сколимовский, Энрико Ло Версо, Джорджо Лупано, Петр Адамчик, Алиция Бахледа, Марьюс Киву
Продолжительность: 01:54:37
Перевод: Многоголосый закадровый, любительский

Дата мировой премьеры: 11 сентября 2012
Видеокодек: Xvid
Битрейт видео: ~1599 kb/s
Размер кадра: 720x304
Качество видео: DVDRip
Аудиокодек: AC3 2.0
Битрейт аудио: 224 kb/s
Общее
Полное имя : D:\Торрент раздача\Bitwa.pod.Wiedniem.2012.L2.DVDRip.avi
Формат : AVI
Формат/Информация : Audio Video Interleave
Размер файла : 1,47 Гбайт
Продолжительность : 1 ч. 54 м.
Общий поток : 1833 Кбит/сек
Программа кодирования : VirtualDubMod 1.5.4.1 (build 2178/release)
Библиотека кодирования : VirtualDub build 33790/release

Видео
Идентификатор : 0
Формат : MPEG-4 Visual
Профиль формата : Advanced Simple@L5
Параметр BVOP формата : Нет
Параметр QPel формата : Нет
Параметр GMC формата : Без точки перехода
Параметр матрицы формата : Выборочная
Идентификатор кодека : XVID
Идентификатор кодека/Подсказка : XviD
Продолжительность : 1 ч. 54 м.
Битрейт : 1599 Кбит/сек
Ширина : 720 пикселей
Высота : 304 пикселя
Соотношение сторон : 2,35:1
Частота кадров : 25,000 кадров/сек
Цветовое пространство : YUV
Субдискретизация насыщенности : 4:2:0
Битовая глубина : 8 бит
Тип развёртки : Прогрессивная
Метод сжатия : С потерями
Бит/(Пиксели*Кадры) : 0.292
Размер потока : 1,28 Гбайт (87%)
Библиотека кодирования : XviD 64

Аудио
Идентификатор : 1
Формат : AC-3
Формат/Информация : Audio Coding 3
Расширение режима : CM (complete main)
Параметр Endianness формата : Big
Идентификатор кодека : 2000
Продолжительность : 1 ч. 54 м.
Вид битрейта : Постоянный
Битрейт : 224 Кбит/сек
Каналы : 2 канала
Расположение каналов : Front: L R
Частота : 48,0 КГц
Битовая глубина : 16 бит
Метод сжатия : С потерями
Размер потока : 184 Мбайт (12%)
Выравнивание : Разделение по промежуткам
Продолжительность промежутка : 40 мс. (1,00 видеокадр)
Время предзагрузки промежутка : 500 мс.
Скриншоты:

Время раздачи: 24/7
[NNM-Club.ru]_Bitwa.pod.Wiedniem.2012.L2.DVDRip.torrent
 Торрент: Платиновая раздача  Зарегистрирован
 
Скачать


Примагнититься
 Зарегистрирован:   29 Май 2013 21:08:28
 Размер:   1.47 GB  (
 Рейтинг:   4.4 (Голосов: 44)
 Поблагодарили:   201
 Проверка:   Оформление проверено модератором 30 Май 2013 23:48:47
Как cкачать  ·  Как раздать  ·  Правильно оформить  ·  Поднять ратио!  
FreeMarksman
Стаж: 13 лет 2 мес.
Сообщений: 1444
Ratio: 12.099
Поблагодарили: 342
56.73%
ussr.gif
3,1/10. Что реально параша? выглядит очень даже эпично....
stal31
Стаж: 13 лет 4 мес.
Сообщений: 21
Ratio: 23.422
100%
russia.gif
У фильма очень занижен рейтинг, смотреть можно 6/10
FreeMarksman
Стаж: 13 лет 2 мес.
Сообщений: 1444
Ratio: 12.099
Поблагодарили: 342
56.73%
ussr.gif
stal31, спасибо) видимо посмотрю! Я кажется понял в чём тут фишка. Видимо сочли неудачной попыткой снять как Ежи Гоффман, но пусть лучше режиссёр будет косить под Гоффмана, нежели быть Бондарчуком или Михалковым ИМХО.
vkrokus
Стаж: 14 лет 3 мес.
Сообщений: 1314
Ratio: 23.283
100%
Откуда: Земля Русская
В своё время этот фильм раскритиковали за неисторичность...
Показать сообщения:   
Начать новую тему   Ответить на тему    Торрент-трекер NNM-Club -> Зарубежное кино -> Зарубежные Фильмы (SD) Часовой пояс: GMT + 3
Страница 1 из 1