Классический форум-трекер
canvas not supported
Нас вместе: 4 232 965

Смывайся / Flushed Away (2006) HDRip


 
 
RSS
Начать новую тему   Ответить на тему    Торрент-трекер NNM-Club -> Мультфильмы -> Зарубежные Мультфильмы 21-го века (SD)
Автор Сообщение
Marioxo ®
Стаж: 11 лет 5 мес.
Сообщений: 61
Ratio: 8.309
Раздал: 3.58 TB
Поблагодарили: 10500
100%
russia.gif
Смывайся / Flushed Away (2006) HDRip
Русское название: Смывайся
Оригинальное название: Flushed Away
Год выпуска: 2006
Производство: США, Великобритания
Жанр: Комедия, Приключения, Детский

Описание:
Родди — привилегированная крыса, живущая жизнью любимого домашнего животного в престижном пентхаусе. Однажды засорившаяся раковина «выплевывает» в квартиру канализационную крысу Сида, которому приходятся по душе роскошные апартаменты.
Чтобы избавиться от надоедливого гостя, Родди решает смыть его в унитаз, но житель канализации не такой простак, каким кажется, и в итоге в унитазе оказывается сам Родди. Попав в канализацию, ему предстоит привыкнуть к совершенно новой, незнакомой ему жизни…



Режиссер: Дэвид Бауэрс / David Bowers, Сэм Фелл / Sam Fell
Персонажи: Хью Джекман, Кейт Уинслет, Йен МакКеллен, Жан Рено, Билл Найи, Энди Серкис, Шэйн Ричи, Кэти Бурк, Дэвид Суше, Мириам Маргулис

Продолжительность: 01:24:30
Перевод: Дублированный
Язык субтитров: Отсутствуют

Видеокодек: Xvid
Битрейт видео: ~1024 kbps
Размер кадра: 720x400
Качество видео: HDRip
Аудиокодек: AC3 2.0
Битрейт аудио: ~128 kbps
Общее
Полное имя : D:\Торренты на раздачу\Смывайся\Flushed_Away.avi
Формат : AVI
Формат/Информация : Audio Video Interleave
Размер файла : 702 Мбайт
Продолжительность : 1 ч. 24 м.
Общий поток : 1161 Кбит/сек
Программа кодирования : VirtualDubMod 1.5.10.2 (build 2540/release)
Библиотека кодирования : VirtualDubMod build 2540/release

Видео
Идентификатор : 0
Формат : MPEG-4 Visual
Профиль формата : Advanced Simple@L5
Параметр BVOP формата : 2
Параметр QPel формата : Нет
Параметр GMC формата : Без точки перехода
Параметр матрицы формата : Default (H.263)
Идентификатор кодека : XVID
Идентификатор кодека/Подсказка : XviD
Продолжительность : 1 ч. 24 м.
Битрейт : 1024 Кбит/сек
Ширина : 720 пикселей
Высота : 400 пикселей
Соотношение сторон : 16:9
Частота кадров : 24,000 кадра/сек
Цветовое пространство : YUV
Субдискретизация насыщенности : 4:2:0
Битовая глубина : 8 бит
Тип развёртки : Прогрессивная
Метод сжатия : С потерями
Бит/(Пиксели*Кадры) : 0.148
Размер потока : 619 Мбайт (88%)
Библиотека кодирования : XviD 1.2.1 (UTC 2008-12-04)

Аудио
Идентификатор : 1
Формат : AC-3
Формат/Информация : Audio Coding 3
Расширение режима : CM (complete main)
Параметр Endianness формата : Big
Идентификатор кодека : 2000
Продолжительность : 1 ч. 24 м.
Вид битрейта : Постоянный
Битрейт : 128 Кбит/сек
Каналы : 2 канала
Расположение каналов : Front: L R
Частота : 48,0 КГц
Битовая глубина : 16 бит
Метод сжатия : С потерями
Размер потока : 77,4 Мбайт (11%)
Выравнивание : Разделение по промежуткам
Продолжительность промежутка : 42 мс. (1,00 видеокадр)
Время предзагрузки промежутка : 500 мс.
Скриншоты:


Все релизы "Смывайся" на сайте

Время раздачи: ~ С 14:00 до 03:00 (10-15 скачавших)
[NNM-Club.ru]_Flushed_Away.torrent
 Торрент: Платиновая раздача  Зарегистрирован
 
Скачать


Примагнититься
 Зарегистрирован:   29 Май 2013 21:13:18
 Размер:   702 MB  (
 Рейтинг:   4.9 (Голосов: 33)
 Поблагодарили:   152
 Проверка:   Оформление проверено модератором 29 Май 2013 21:35:42
Как cкачать  ·  Как раздать  ·  Правильно оформить  ·  Поднять ратио!  
Показать сообщения:   
Начать новую тему   Ответить на тему    Торрент-трекер NNM-Club -> Мультфильмы -> Зарубежные Мультфильмы 21-го века (SD) Часовой пояс: GMT + 3
Страница 1 из 1