Классический форум-трекер
canvas not supported
Нас вместе: 4 232 360

Хорошие поступки / Good Deeds (2012) DVDRip


 
 
RSS
Начать новую тему   Ответить на тему    Торрент-трекер NNM-Club -> Зарубежное кино -> Зарубежные Фильмы (SD)
Автор Сообщение
eXPpectant ®
Стаж: 14 лет 5 мес.
Сообщений: 2457
Ratio: 1628.264
Раздал: 18.08 TB
Поблагодарили: 307982
100%
Откуда: Нижний Тагил + Дмитров
russia.gif
Хорошие поступки / Good Deeds (2012) DVDRip
Русское название: Хорошие поступки
Оригинальное название: Good Deeds
Год выпуска: 2012
Производство: США / Tyler Perry Studios, Lionsgate
Жанр: Драма, Мелодрама, Комедия
Описание фильма:
Уэсли Дидс, успешный, богатый бизнесмен. Он всегда делал в своей жизни то, что от него обычно ожидали, будь то принятие руководства компанией его отца, или же планирование свадьбы с красавицей Натали. Однако, неожиданно для окружающих и себя самого, Уэсли встряхивается от рутины и повседневности после того, как встречает Линдси, мать-одиночку, работающую уборщицей в его офисном здании.

Решив помочь женщине вновь встать на ноги после ряда жизненных неудач, герой вдруг начинает осознавать, что что-то изменилось внутри него самого. Что-то, что наконец-то даст мужчине сил обменять свою привычную жизнь на ту, что на самом деле всегда была ему нужна.
Режиссер: Тайлер Перри
Продюсер: Оззи Арю, Пол Холл, Тайлер Перри
Актеры: Тайлер Перри, Тэнди Ньютон, Гэбриэл Юнион, Эдди Сибриан, Брайан Дж. Уайт, Филисия Рашад, Беверли Джонсон, Ребекка Ромин, Джейми Кеннеди
Продолжительность: 01:45:31
Перевод: Многоголосый закадровый (лицензия)

Дата мировой премьеры: 24 февраля 2012
Дата российской премьеры: 14 мая 2013, «West Video»
Видеокодек: Xvid
Битрейт видео: ~2000 kb/s
Размер кадра: 720x400
Качество видео: DVDRip
Аудио#1: Русский - AC3, 384 kb/s (6 ch)
Аудио#2: Английский - AC3, 384 kb/s (6 ch)
Общее
Полное имя : D:\Торрент раздача\Horoshie.postupki.2012.P.DVDRip.avi
Формат : AVI
Формат/Информация : Audio Video Interleave
Профиль формата : OpenDML
Размер файла : 2,05 Гбайт
Продолжительность : 1 ч. 45 м.
Общий поток : 2787 Кбит/сек
Название фильма : Horoshie.postupki.2012.P.DVDRip
Жанр : Comedy | Drama | Romance
Программа кодирования : VirtualDubMod 1.5.10.3 | www.virtualdub-fr.org || (build 2550/release)
Формат оригинала/Имя : Movie

Видео
Идентификатор : 0
Формат : MPEG-4 Visual
Профиль формата : Advanced Simple@L5
Параметр BVOP формата : 1
Параметр QPel формата : Нет
Параметр GMC формата : Без точки перехода
Параметр матрицы формата : Выборочная
Идентификатор кодека : XVID
Идентификатор кодека/Подсказка : XviD
Продолжительность : 1 ч. 45 м.
Битрейт : 2000 Кбит/сек
Ширина : 720 пикселей
Высота : 400 пикселей
Соотношение сторон : 16:9
Частота кадров : 25,000 кадров/сек
Цветовое пространство : YUV
Субдискретизация насыщенности : 4:2:0
Битовая глубина : 8 бит
Тип развёртки : Прогрессивная
Метод сжатия : С потерями
Бит/(Пиксели*Кадры) : 0.278
Размер потока : 1,47 Гбайт (72%)
Библиотека кодирования : XviD 1.2.1 (UTC 2008-12-04)

Аудио #1
Идентификатор : 1
Формат : AC-3
Формат/Информация : Audio Coding 3
Расширение режима : CM (complete main)
Параметр Endianness формата : Big
Идентификатор кодека : 2000
Продолжительность : 1 ч. 45 м.
Вид битрейта : Постоянный
Битрейт : 384 Кбит/сек
Каналы : 6 каналов
Расположение каналов : Front: L C R, Side: L R, LFE
Частота : 48,0 КГц
Битовая глубина : 16 бит
Метод сжатия : С потерями
Размер потока : 290 Мбайт (14%)
Выравнивание : Разделение по промежуткам
Продолжительность промежутка : 40 мс. (1,00 видеокадр)
Время предзагрузки промежутка : 500 мс.

Аудио #2
Идентификатор : 2
Формат : AC-3
Формат/Информация : Audio Coding 3
Расширение режима : CM (complete main)
Параметр Endianness формата : Big
Идентификатор кодека : 2000
Продолжительность : 1 ч. 45 м.
Вид битрейта : Постоянный
Битрейт : 384 Кбит/сек
Каналы : 6 каналов
Расположение каналов : Front: L C R, Side: L R, LFE
Частота : 48,0 КГц
Битовая глубина : 16 бит
Метод сжатия : С потерями
Размер потока : 290 Мбайт (14%)
Выравнивание : Разделение по промежуткам
Продолжительность промежутка : 40 мс. (1,00 видеокадр)
Время предзагрузки промежутка : 500 мс.
Скриншоты:

Время раздачи: 24/7
[NNM-Club.ru]_Horoshie.postupki.2012.P.DVDRip.torrent
 Торрент: Платиновая раздача  Зарегистрирован
 
Скачать


Примагнититься
 Зарегистрирован:   29 Май 2013 22:07:15
 Размер:   2.05 GB  (
 Рейтинг:   4.7 (Голосов: 32)
 Поблагодарили:   174
 Проверка:   Оформление проверено модератором 30 Май 2013 23:55:07
Как cкачать  ·  Как раздать  ·  Правильно оформить  ·  Поднять ратио!  
witamin33
Стаж: 12 лет 9 мес.
Сообщений: 55
Ratio: 13.154
9.52%
russia.gif
почему одни негры?
exp630
Стаж: 11 лет 4 мес.
Сообщений: 1000
Ratio: 7.427
9.42%
russia.gif
witamin33 писал(а): Перейти к сообщению
почему одни негры?


Это же Тайлер Перри. Он поточным способом стабильно снимает кино с неграми про негров и для негров, фильм за фильмом, рейтинги никакие, сам себе режиссёр, продюсер, сценарист и исполнитель главной роли.
pentagon62

Online
Стаж: 12 лет 4 мес.
Сообщений: 528
Ratio: 3.962
Раздал: 9.819 TB
100%
ussr.gif
exp630 писал(а): Перейти к сообщению
Это же Тайлер Перри. Он поточным способом стабильно снимает кино с неграми про негров и для негров, фильм за фильмом, рейтинги никакие, сам себе режиссёр, продюсер, сценарист и исполнитель главной роли.
Все ясно - целевая аудитория :задумался:
Андрей В.Ч. - К.
Стаж: 14 лет 8 мес.
Сообщений: 167
Ratio: 3.06
0.02%
Откуда: Екатеринбург
russia.gif
Жаль, что про негров... возможно неплохое кино...
kristadze
Стаж: 12 лет 3 мес.
Сообщений: 384
Ratio: 5.687
100%
фильм очень хороший
serfer99
Стаж: 13 лет 4 мес.
Сообщений: 349
Ratio: 1.467
100%
russia.gif
Очень Хороший семейный фильм. Не зря потраченное время.
Качество видео и звука хорошее. Качайте.

Спасибо за релиз ткнул.
dima-mak3333
Стаж: 11 лет 1 мес.
Сообщений: 1
Ratio: 1.111
0%
супер фильм, советую всем работоголикам и не только.....
Показать сообщения:   
Начать новую тему   Ответить на тему    Торрент-трекер NNM-Club -> Зарубежное кино -> Зарубежные Фильмы (SD) Часовой пояс: GMT + 3
Страница 1 из 1