Классический форум-трекер
canvas not supported
Нас вместе: 4 232 298

Охота на хищниц / Cougar Hunting (2011) HDTVRip [H.264/720p-LQ]


 
 
RSS
Начать новую тему   Ответить на тему    Торрент-трекер NNM-Club -> Зарубежное кино -> Зарубежные Фильмы (HD, FHD)
Автор Сообщение
eXPpectant ®
Стаж: 14 лет 5 мес.
Сообщений: 2457
Ratio: 1628.264
Раздал: 18.08 TB
Поблагодарили: 308031
100%
Откуда: Нижний Тагил + Дмитров
russia.gif
Охота на хищниц / Cougar Hunting (2011) HDTVRip
Русское название: Охота на хищниц
Оригинальное название: Cougar Hunting
Год выпуска: 2011
Производство: США / Aspen Entertainment Group
Жанр: Комедия
Описание фильма:
Осознав, что наладить сексуальную жизнь в родном городке нет никакой возможности, трое юнцов решают ехать в Аспен, штат Колорадо. Ходят слухи, что этот город далеко продвинулся по части модной тенденции «хищниц»: так называют привлекательных женщин среднего возраста, которые с удовольствием назначают свидания юношам…
Режиссер: Робин Блазак
Актеры: Мэтт Прокоп, Рэнди Уэйн, Джареб Доплес, Джиллиан Мюррэй, Ванесса Энджел, Робин Блазак, Мелисса Уайлер, Мэтт Синнрейх, Джим Ферраро, Фрэнк Дранк
Продолжительность: 01:28:02
Перевод: Многоголосый закадровый (НТВ+)

Дата мировой премьеры: 22 апреля 2011
Видеокодек: MPEG-4 AVC/H.264
Битрейт видео: ~4102 Кбит/c
Размер кадра: 1280x690
Качество видео: HDTVRip
Аудиокодек: AC3 2.0
Битрейт аудио: 448 Кбит/c
Общее
Уникальный идентификатор : 221910375530458308175632931288733353507 (0xA6F2623B8094E83196912640B80A8623)
Полное имя : D:\Торрент раздача\Cougar.Hunting.2011.HDTVRip.(720p).mkv
Формат : Matroska
Версия формата : Version 2
Размер файла : 2,80 Гбайт
Продолжительность : 1 ч. 28 м.
Общий поток : 4549 Кбит/сек
Дата кодирования : UTC 2013-05-30 12:43:44
Программа кодирования : mkvmerge v5.7.0 ('The Whirlwind') built on Aug 7 2012 14:11:40
Библиотека кодирования : libebml v1.2.3 + libmatroska v1.3.0

Видео
Идентификатор : 1
Формат : AVC
Формат/Информация : Advanced Video Codec
Профиль формата : High@L4.1
Параметр CABAC формата : Да
Параметр ReFrames формата : 8 кадров
Идентификатор кодека : V_MPEG4/ISO/AVC
Продолжительность : 1 ч. 28 м.
Битрейт : 4102 Кбит/сек
Ширина : 1280 пикселей
Высота : 690 пикселей
Соотношение сторон : 1,85:1
Режим частоты кадров : Постоянный
Частота кадров : 25,000 кадров/сек
Цветовое пространство : YUV
Субдискретизация насыщенности : 4:2:0
Битовая глубина : 8 бит
Тип развёртки : Прогрессивная
Бит/(Пиксели*Кадры) : 0.186
Размер потока : 2,47 Гбайт (88%)
Заголовок : MediaClub-kaspr
Библиотека кодирования : x264 core 130 r2273 b3065e6
Настройки программы : cabac=1 / ref=8 / deblock=1:-3:-3 / analyse=0x3:0x133 / me=umh / subme=9 / psy=1 / psy_rd=1.00:0.10 / mixed_ref=1 / me_range=32 / chroma_me=1 / trellis=2 / 8x8dct=1 / cqm=0 / deadzone=21,11 / fast_pskip=0 / chroma_qp_offset=-3 / threads=12 / lookahead_threads=2 / sliced_threads=0 / nr=0 / decimate=0 / interlaced=0 / bluray_compat=0 / constrained_intra=0 / bframes=8 / b_pyramid=2 / b_adapt=2 / b_bias=0 / direct=3 / weightb=1 / open_gop=0 / weightp=2 / keyint=250 / keyint_min=23 / scenecut=40 / intra_refresh=0 / rc=2pass / mbtree=0 / bitrate=4102 / ratetol=1.0 / qcomp=0.60 / qpmin=0 / qpmax=69 / qpstep=4 / cplxblur=20.0 / qblur=0.5 / ip_ratio=1.40 / pb_ratio=1.30 / aq=1:1.00
Default : Да
Forced : Нет

Аудио
Идентификатор : 2
Формат : AC-3
Формат/Информация : Audio Coding 3
Расширение режима : CM (complete main)
Параметр Endianness формата : Big
Идентификатор кодека : A_AC3
Продолжительность : 1 ч. 28 м.
Вид битрейта : Постоянный
Битрейт : 448 Кбит/сек
Каналы : 2 канала
Расположение каналов : Front: L R
Частота : 48,0 КГц
Битовая глубина : 16 бит
Метод сжатия : С потерями
Размер потока : 282 Мбайт (10%)
Язык : Russian
Default : Да
Forced : Нет
Скриншоты:

Время раздачи: 24/7
[NNM-Club.ru]_Cougar.Hunting.2011.HDTVRip.(720p).torrent
 Торрент:   Зарегистрирован
 
Зарегистрируйтесь и скачайте торрент!
14.3 KB

Примагнититься
 Зарегистрирован:   30 Май 2013 22:23:22
 Размер:   2.8 GB  (
 Рейтинг:   4.3 (Голосов: 24)
 Поблагодарили:   115
 Проверка:   Оформление проверено модератором 31 Май 2013 11:22:49
Как cкачать  ·  Как раздать  ·  Правильно оформить  ·  Поднять ратио!  
Показать сообщения:   
Начать новую тему   Ответить на тему    Торрент-трекер NNM-Club -> Зарубежное кино -> Зарубежные Фильмы (HD, FHD) Часовой пояс: GMT + 3
Страница 1 из 1