Классический форум-трекер
canvas not supported
Нас вместе: 4 232 971

Бугай / Boogie, el aceitoso (2009) BDRip


 
 
RSS
Начать новую тему   Ответить на тему    Торрент-трекер NNM-Club -> Мультфильмы -> Зарубежные Мультфильмы 21-го века (SD)
Автор Сообщение
Marioxo ®
Стаж: 11 лет 5 мес.
Сообщений: 61
Ratio: 8.309
Раздал: 3.58 TB
Поблагодарили: 10500
100%
russia.gif
Бугай / Boogie, el aceitoso (2009) BDRip
Русское название: Бугай
Оригинальное название: Boogie, el aceitoso
Год выпуска: 2009
Производство: Аргентина, Мексика
Жанр: Боевик, Криминал

Зрителям, достигшим 16 лет!!!

Описание:
Киллер по прозвищу Бугай начал свою карьеру во Вьетнаме, убивал черных повстанцев в Южной Африке, мочил красных в Никаргуа, глотал песок в Афганистане и Ираке. Он был на всех гребаных войнах за последние 30 лет! Раньше он убивал во имя демократии, теперь убивает за бабос!
Этот заказ должен был стать последним — убрать бывшую телку Сонни Калабриа, дона всех донов, главы мафии в Америке, которую ФБР развело дать показания против него. Дело трудное и он попросил много — 500 кусков. Чтобы хватило надолго.
Но Сонни зажал бабки и нанял молодого киллера Блэкберна по кличке Человек-Каблук, который обещал отработать за половину и убрать Бугая до кучи, чтобы не возникло конфликта интересов. И тут Бугай конкретно напрягся! Теперь его цель — выкрасть свидетельницу, любой ценой привезти ее на суд и убить всех вокруг! На его пути вырастают горы трупов, кровь льется рекой и выбитые зубы свистят над головой.



Режиссер: Густаво Кова / Gustavo Cova
Персонажи: Пабло Эчарри, Нэнси Дуплаа, Николас Фриас, Марсело Арман, Руфино Галло, Диего Брицци, Рикардо Эланис, Лучана Фалькон, Карин Сабала, Эрнан Чьёзза

Продолжительность: 01:25:38
Перевод: Дублированный
Язык субтитров: Отсутствуют

Видеокодек: Xvid
Битрейт видео: ~1078 kbps avg
Размер кадра: 624x352
Качество видео: BDRip
Аудиокодек: MP3, 2.0
Битрейт аудио: ~128 kbps avg
Общее
Полное имя : D:\Торренты на раздачу\Бугай\Bugaj.avi
Формат : AVI
Формат/Информация : Audio Video Interleave
Размер файла : 745 Мбайт
Продолжительность : 1 ч. 25 м.
Общий поток : 1216 Кбит/сек
Программа кодирования : VirtualDubMod 1.5.10.3 | (build 2550/release)
Библиотека кодирования : VirtualDubMod build 2550/release

Видео
Идентификатор : 0
Формат : MPEG-4 Visual
Профиль формата : Advanced Simple@L5
Параметр BVOP формата : 1
Параметр QPel формата : Нет
Параметр GMC формата : Без точки перехода
Параметр матрицы формата : Выборочная
Идентификатор кодека : XVID
Идентификатор кодека/Подсказка : XviD
Продолжительность : 1 ч. 25 м.
Битрейт : 1079 Кбит/сек
Ширина : 624 пикселя
Высота : 352 пикселя
Соотношение сторон : 16:9
Частота кадров : 23,976 кадра/сек
Цветовое пространство : YUV
Субдискретизация насыщенности : 4:2:0
Битовая глубина : 8 бит
Тип развёртки : Прогрессивная
Метод сжатия : С потерями
Бит/(Пиксели*Кадры) : 0.205
Размер потока : 661 Мбайт (89%)
Библиотека кодирования : XviD 63

Аудио
Идентификатор : 1
Формат : MPEG Audio
Версия формата : Version 1
Профиль формата : Layer 3
Идентификатор кодека : 55
Идентификатор кодека/Подсказка : MP3
Продолжительность : 1 ч. 25 м.
Вид битрейта : Постоянный
Битрейт : 128 Кбит/сек
Каналы : 2 канала
Частота : 48,0 КГц
Метод сжатия : С потерями
Размер потока : 78,4 Мбайт (11%)
Выравнивание : Соединение по промежуткам
Продолжительность промежутка : 42 мс. (1,00 видеокадр)
Время предзагрузки промежутка : 504 мс.
Библиотека кодирования : LAME3.98r
Настройки программы : -m s -V 4 -q 2 -lowpass 17 -b 128
Скриншоты:


Все релизы "Бугай" на сайте

Время раздачи: ~ С 14:00 до 03:00 (10-15 скачавших)
[NNM-Club.ru]_Bugaj.torrent
 Торрент: Платиновая раздача  Зарегистрирован
 
Скачать


Примагнититься
 Зарегистрирован:   04 Июн 2013 23:27:26
 Размер:   745 MB  (
 Рейтинг:   4.6 (Голосов: 30)
 Поблагодарили:   112
 Проверка:   Оформление проверено модератором 05 Июн 2013 09:38:41
Как cкачать  ·  Как раздать  ·  Правильно оформить  ·  Поднять ратио!  
Ivamoto
Стаж: 11 лет
Сообщений: 46
Ratio: 5.269
Поблагодарили: 1181
22.99%
Откуда: Москва
russia.gif
Че за бредятина?
mozlik
Стаж: 14 лет 5 мес.
Сообщений: 137
Ratio: 8.252
100%
cuba.gif
мульт очень хорош. рекомендую
Alex Yo
 
Стаж: 13 лет 6 мес.
Сообщений: 87
Ratio: 1.962
Поблагодарили: 118
75.7%
Прекрасный фильм в стиле Такеши Китано
Kreator1974
Стаж: 11 лет 5 мес.
Сообщений: 652
Ratio: 8.562
100%
ukraine.gif
Посмотрел,повеселился!
Показать сообщения:   
Начать новую тему   Ответить на тему    Торрент-трекер NNM-Club -> Мультфильмы -> Зарубежные Мультфильмы 21-го века (SD) Часовой пояс: GMT + 3
Страница 1 из 1