Классический форум-трекер
canvas not supported
Нас вместе: 4 171 134

Грань / За гранью / Fringe (2012-2013) WEB-DL [720p] (сезон 5, серии 1-13 из 13) ТВ3


Страницы:   Пред.  1, 2 
 
RSS
Начать новую тему   Ответить на тему    Торрент-трекер NNM-Club -> Зарубежные сериалы -> Грань / Fringe
Автор Сообщение
WOLF 80 ®
Uploader 100+
Стаж: 12 лет 3 мес.
Сообщений: 480
Ratio: 3903.212
Раздал: 157 TB
Поблагодарили: 31547
100%
Откуда: Санкт-Петербург
russia.gif
Грань / За гранью / Fringe (2012-2013) WEB-DL [720p] (сезон 5, серии 1-13 из 13) ТВ3
Год выпуска: 2012-2013
Жанр: фантастика, триллер, драма, детектив


Перевод:
Профессиональный (полное дублирование) - канал ТВ3
Оригинал (английский)




Режиссер: Брэд Андерсон, Brad Anderson, Фред Туа, Fred Toye
Актеры: Анна Торв, Джошуа Джексон, Джон Ноубл, Джесика Николь, Лэнс Реддик, Блэр Браун, Майкл Серверис, Кирк Асеведо, Сет Гейбл, Райан МакДональд
Роли дублировали: Елена Чебатуркина, Наталья Грачева, Сергей Набиев, Андрей Бархударов, Ольга Зверева, Олег Куценко
Описание фильма: Оливия Данэм — молодой агент ФБР — вынуждена работать со штатом ученых, чтобы расследовать необъяснимые феномены. Среди работников этого секретного отдела Национальной Безопасности: доктор Уолтер Бишоп — что-то среднее между Эйнштейном и Франкенштейном, его сын с IQ около 200, так и не закончивший школу, с карточными долгами и Нина Шарп, проработавшая на тайную организацию 16 лет. Особый агент НБ Филип Бройлс возглавляет отдел, призванный расследовать паранормальные явления.
Общее
Уникальный идентификатор : 192770553101721598944886300032015556945 (0x910642105104056F9D9D384070346151)
Полное имя : E:\UPLOADED\СЕРИАЛЫ\FRINGE\FRINGE (ГРАНЬ) SEASON 5\01. Разделитель мыслей модель номер 11 (Transilience Thought Unifier model 11).mkv
Формат : Matroska
Версия формата : Version 4 / Version 2
Размер файла : 1,43 Гбайт
Продолжительность : 43 м.
Общий поток : 4722 Кбит/сек
Название фильма : 01. Разделитель мыслей модель номер 11 (Transilience Thought Unifier model 11)
Дата кодирования : UTC 2010-02-22 21:41:31
Программа кодирования : mkvmerge v5.8.0 ('No Sleep / Pillow') built on Sep 30 2012 10:57:14
Библиотека кодирования : libebml v1.3.0 + libmatroska v1.4.0

Видео
Идентификатор : 1
Формат : AVC
Формат/Информация : Advanced Video Codec
Профиль формата : High@L3.1
Параметр CABAC формата : Нет
Параметр ReFrames формата : 2 кадра
Идентификатор кодека : V_MPEG4/ISO/AVC
Продолжительность : 43 м.
Битрейт : 4052 Кбит/сек
Ширина : 1280 пикселей
Высота : 720 пикселей
Соотношение сторон : 16:9
Режим частоты кадров : Постоянный
Частота кадров : 23,976 кадра/сек
Цветовое пространство : YUV
Субдискретизация насыщенности : 4:2:0
Битовая глубина : 8 бит
Тип развёртки : Прогрессивная
Бит/(Пиксели*Кадры) : 0.183
Размер потока : 1,23 Гбайт (86%)
Заголовок : 01. Разделитель мыслей модель номер 11 (Transilience Thought Unifier model 11)
Язык : English
Default : Да
Forced : Нет
Основные цвета : BT.709
Характеристики трансфера : BT.709
Коэффициенты матрицы : BT.709

Аудио #1
Идентификатор : 2
Формат : AC-3
Формат/Информация : Audio Coding 3
Расширение режима : CM (complete main)
Параметр Endianness формата : Big
Идентификатор кодека : A_AC3
Продолжительность : 43 м.
Вид битрейта : Постоянный
Битрейт : 192 Кбит/сек
Каналы : 2 канала
Расположение каналов : Front: L R
Частота : 48,0 КГц
Битовая глубина : 16 бит
Метод сжатия : С потерями
Размер потока : 59,6 Мбайт (4%)
Заголовок : DUB TV-3
Язык : Russian
Default : Да
Forced : Да

Аудио #2
Идентификатор : 3
Формат : AC-3
Формат/Информация : Audio Coding 3
Расширение режима : CM (complete main)
Параметр Endianness формата : Big
Идентификатор кодека : A_AC3
Продолжительность : 43 м.
Вид битрейта : Постоянный
Битрейт : 384 Кбит/сек
Каналы : 6 каналов
Расположение каналов : Front: L C R, Side: L R, LFE
Частота : 48,0 КГц
Битовая глубина : 16 бит
Метод сжатия : С потерями
Размер потока : 119 Мбайт (8%)
Заголовок : Eng DD5.1
Язык : English
Default : Нет
Forced : Нет
Общее
Уникальный идентификатор : 201396121164557456423846787368115612334 (0x97837B6732AE6B0A8A8F02BA450DAAAE)
Полное имя : E:\UPLOADED\СЕРИАЛЫ\FRINGE\FRINGE (ГРАНЬ) SEASON 5\02. В отсутствие (In Absentia).mkv
Формат : Matroska
Версия формата : Version 4 / Version 2
Размер файла : 1,35 Гбайт
Продолжительность : 42 м.
Общий поток : 4544 Кбит/сек
Название фильма : 02. В отсутствие (In Absentia)
Дата кодирования : UTC 2010-02-22 21:41:31
Программа кодирования : mkvmerge v5.8.0 ('No Sleep / Pillow') built on Sep 30 2012 10:57:14
Библиотека кодирования : libebml v1.3.0 + libmatroska v1.4.0

Видео
Идентификатор : 1
Формат : AVC
Формат/Информация : Advanced Video Codec
Профиль формата : High@L3.1
Параметр CABAC формата : Нет
Параметр ReFrames формата : 2 кадра
Идентификатор кодека : V_MPEG4/ISO/AVC
Продолжительность : 42 м.
Битрейт : 3878 Кбит/сек
Ширина : 1280 пикселей
Высота : 720 пикселей
Соотношение сторон : 16:9
Режим частоты кадров : Постоянный
Частота кадров : 23,976 кадра/сек
Цветовое пространство : YUV
Субдискретизация насыщенности : 4:2:0
Битовая глубина : 8 бит
Тип развёртки : Прогрессивная
Бит/(Пиксели*Кадры) : 0.175
Размер потока : 1,15 Гбайт (85%)
Заголовок : 02. В отсутствие (In Absentia)
Язык : English
Default : Да
Forced : Нет
Основные цвета : BT.709
Характеристики трансфера : BT.709
Коэффициенты матрицы : BT.709

Аудио #1
Идентификатор : 2
Формат : AC-3
Формат/Информация : Audio Coding 3
Расширение режима : CM (complete main)
Параметр Endianness формата : Big
Идентификатор кодека : A_AC3
Продолжительность : 42 м.
Вид битрейта : Постоянный
Битрейт : 192 Кбит/сек
Каналы : 2 канала
Расположение каналов : Front: L R
Частота : 48,0 КГц
Битовая глубина : 16 бит
Метод сжатия : С потерями
Размер потока : 58,3 Мбайт (4%)
Заголовок : DUB TV-3
Язык : Russian
Default : Да
Forced : Да

Аудио #2
Идентификатор : 3
Формат : AC-3
Формат/Информация : Audio Coding 3
Расширение режима : CM (complete main)
Параметр Endianness формата : Big
Идентификатор кодека : A_AC3
Продолжительность : 42 м.
Вид битрейта : Постоянный
Битрейт : 384 Кбит/сек
Каналы : 6 каналов
Расположение каналов : Front: L C R, Side: L R, LFE
Частота : 48,0 КГц
Битовая глубина : 16 бит
Метод сжатия : С потерями
Размер потока : 117 Мбайт (8%)
Заголовок : Eng DD5.1
Язык : English
Default : Нет
Forced : Нет
Общее
Уникальный идентификатор : 251276748361852804273353037902633325906 (0xBD0A2432C792655F8177F5C8C6D95552)
Полное имя : E:\UPLOADED\СЕРИАЛЫ\FRINGE\FRINGE (ГРАНЬ) SEASON 5\03. Тот, кто записывает историю (The Recordist).mkv
Формат : Matroska
Версия формата : Version 4 / Version 2
Размер файла : 1,33 Гбайт
Продолжительность : 41 м.
Общий поток : 4556 Кбит/сек
Название фильма : 03. Тот, кто записывает историю (The Recordist)
Дата кодирования : UTC 2010-02-22 21:41:31
Программа кодирования : mkvmerge v5.8.0 ('No Sleep / Pillow') built on Sep 30 2012 10:57:14
Библиотека кодирования : libebml v1.3.0 + libmatroska v1.4.0

Видео
Идентификатор : 1
Формат : AVC
Формат/Информация : Advanced Video Codec
Профиль формата : High@L3.1
Параметр CABAC формата : Нет
Параметр ReFrames формата : 2 кадра
Идентификатор кодека : V_MPEG4/ISO/AVC
Продолжительность : 41 м.
Битрейт : 3889 Кбит/сек
Ширина : 1280 пикселей
Высота : 720 пикселей
Соотношение сторон : 16:9
Режим частоты кадров : Постоянный
Частота кадров : 23,976 кадра/сек
Цветовое пространство : YUV
Субдискретизация насыщенности : 4:2:0
Битовая глубина : 8 бит
Тип развёртки : Прогрессивная
Бит/(Пиксели*Кадры) : 0.176
Размер потока : 1,14 Гбайт (85%)
Заголовок : 03. Тот, кто записывает историю (The Recordist)
Язык : English
Default : Да
Forced : Нет
Основные цвета : BT.709
Характеристики трансфера : BT.709
Коэффициенты матрицы : BT.709

Аудио #1
Идентификатор : 2
Формат : AC-3
Формат/Информация : Audio Coding 3
Расширение режима : CM (complete main)
Параметр Endianness формата : Big
Идентификатор кодека : A_AC3
Продолжительность : 41 м.
Вид битрейта : Постоянный
Битрейт : 192 Кбит/сек
Каналы : 2 канала
Расположение каналов : Front: L R
Частота : 48,0 КГц
Битовая глубина : 16 бит
Метод сжатия : С потерями
Размер потока : 57,5 Мбайт (4%)
Заголовок : DUB TV-3
Язык : Russian
Default : Да
Forced : Да

Аудио #2
Идентификатор : 3
Формат : AC-3
Формат/Информация : Audio Coding 3
Расширение режима : CM (complete main)
Параметр Endianness формата : Big
Идентификатор кодека : A_AC3
Продолжительность : 41 м.
Вид битрейта : Постоянный
Битрейт : 384 Кбит/сек
Каналы : 6 каналов
Расположение каналов : Front: L C R, Side: L R, LFE
Частота : 48,0 КГц
Битовая глубина : 16 бит
Метод сжатия : С потерями
Размер потока : 115 Мбайт (8%)
Заголовок : Eng DD5.1
Язык : English
Default : Нет
Forced : Нет
Общее
Уникальный идентификатор : 240067102852041178624311004646171248090 (0xB49B3E011D461E8998696D472A8885DA)
Полное имя : E:\UPLOADED\СЕРИАЛЫ\FRINGE\FRINGE (ГРАНЬ) SEASON 5\04. Пуля, спасшая мир (The Bullet that Saved the World).mkv
Формат : Matroska
Версия формата : Version 4 / Version 2
Размер файла : 1,37 Гбайт
Продолжительность : 43 м.
Общий поток : 4485 Кбит/сек
Название фильма : 04. Пуля, спасшая мир (The Bullet that Saved the World)
Дата кодирования : UTC 2010-02-22 21:41:31
Программа кодирования : mkvmerge v5.8.0 ('No Sleep / Pillow') built on Sep 30 2012 10:57:14
Библиотека кодирования : libebml v1.3.0 + libmatroska v1.4.0

Видео
Идентификатор : 1
Формат : AVC
Формат/Информация : Advanced Video Codec
Профиль формата : High@L3.1
Параметр CABAC формата : Нет
Параметр ReFrames формата : 2 кадра
Идентификатор кодека : V_MPEG4/ISO/AVC
Продолжительность : 43 м.
Битрейт : 3820 Кбит/сек
Ширина : 1280 пикселей
Высота : 720 пикселей
Соотношение сторон : 16:9
Режим частоты кадров : Постоянный
Частота кадров : 23,976 кадра/сек
Цветовое пространство : YUV
Субдискретизация насыщенности : 4:2:0
Битовая глубина : 8 бит
Тип развёртки : Прогрессивная
Бит/(Пиксели*Кадры) : 0.173
Размер потока : 1,17 Гбайт (85%)
Заголовок : 04. Пуля, спасшая мир (The Bullet that Saved the World)
Язык : English
Default : Да
Forced : Нет
Основные цвета : BT.709
Характеристики трансфера : BT.709
Коэффициенты матрицы : BT.709

Аудио #1
Идентификатор : 2
Формат : AC-3
Формат/Информация : Audio Coding 3
Расширение режима : CM (complete main)
Параметр Endianness формата : Big
Идентификатор кодека : A_AC3
Продолжительность : 43 м.
Вид битрейта : Постоянный
Битрейт : 192 Кбит/сек
Каналы : 2 канала
Расположение каналов : Front: L R
Частота : 48,0 КГц
Битовая глубина : 16 бит
Метод сжатия : С потерями
Размер потока : 60,2 Мбайт (4%)
Заголовок : DUB TV-3
Язык : Russian
Default : Да
Forced : Да

Аудио #2
Идентификатор : 3
Формат : AC-3
Формат/Информация : Audio Coding 3
Расширение режима : CM (complete main)
Параметр Endianness формата : Big
Идентификатор кодека : A_AC3
Продолжительность : 43 м.
Вид битрейта : Постоянный
Битрейт : 384 Кбит/сек
Каналы : 6 каналов
Расположение каналов : Front: L C R, Side: L R, LFE
Частота : 48,0 КГц
Битовая глубина : 16 бит
Метод сжатия : С потерями
Размер потока : 120 Мбайт (9%)
Заголовок : Eng DD5.1
Язык : English
Default : Нет
Forced : Нет
Общее
Уникальный идентификатор : 231275398244345801596770214540713535425 (0xADFE05803AEB61A6BD0A0813248227C1)
Полное имя : E:\UPLOADED\СЕРИАЛЫ\FRINGE\FRINGE (ГРАНЬ) SEASON 5\05. Настоящая история (An Origin Story).mkv
Формат : Matroska
Версия формата : Version 4 / Version 2
Размер файла : 1,41 Гбайт
Продолжительность : 43 м.
Общий поток : 4598 Кбит/сек
Название фильма : 05. Настоящая история (An Origin Story)
Дата кодирования : UTC 2010-02-22 21:41:31
Программа кодирования : mkvmerge v5.8.0 ('No Sleep / Pillow') built on Sep 30 2012 10:57:14
Библиотека кодирования : libebml v1.3.0 + libmatroska v1.4.0

Видео
Идентификатор : 1
Формат : AVC
Формат/Информация : Advanced Video Codec
Профиль формата : High@L3.1
Параметр CABAC формата : Нет
Параметр ReFrames формата : 2 кадра
Идентификатор кодека : V_MPEG4/ISO/AVC
Продолжительность : 43 м.
Битрейт : 3931 Кбит/сек
Ширина : 1280 пикселей
Высота : 720 пикселей
Соотношение сторон : 16:9
Режим частоты кадров : Постоянный
Частота кадров : 23,976 кадра/сек
Цветовое пространство : YUV
Субдискретизация насыщенности : 4:2:0
Битовая глубина : 8 бит
Тип развёртки : Прогрессивная
Бит/(Пиксели*Кадры) : 0.178
Размер потока : 1,21 Гбайт (85%)
Заголовок : 05. Настоящая история (An Origin Story)
Язык : English
Default : Да
Forced : Нет
Основные цвета : BT.709
Характеристики трансфера : BT.709
Коэффициенты матрицы : BT.709

Аудио #1
Идентификатор : 2
Формат : AC-3
Формат/Информация : Audio Coding 3
Расширение режима : CM (complete main)
Параметр Endianness формата : Big
Идентификатор кодека : A_AC3
Продолжительность : 43 м.
Вид битрейта : Постоянный
Битрейт : 192 Кбит/сек
Каналы : 2 канала
Расположение каналов : Front: L R
Частота : 48,0 КГц
Битовая глубина : 16 бит
Метод сжатия : С потерями
Размер потока : 60,3 Мбайт (4%)
Заголовок : DUB TV-3
Язык : Russian
Default : Да
Forced : Да

Аудио #2
Идентификатор : 3
Формат : AC-3
Формат/Информация : Audio Coding 3
Расширение режима : CM (complete main)
Параметр Endianness формата : Big
Идентификатор кодека : A_AC3
Продолжительность : 43 м.
Вид битрейта : Постоянный
Битрейт : 384 Кбит/сек
Каналы : 6 каналов
Расположение каналов : Front: L C R, Side: L R, LFE
Частота : 48,0 КГц
Битовая глубина : 16 бит
Метод сжатия : С потерями
Размер потока : 121 Мбайт (8%)
Заголовок : Eng DD5.1
Язык : English
Default : Нет
Forced : Нет
Общее
Уникальный идентификатор : 200113537066634462399753636502883351790 (0x968C771FF533B418BB46EA007FBD3CEE)
Полное имя : E:\UPLOADED\СЕРИАЛЫ\FRINGE\FRINGE (ГРАНЬ) SEASON 5\06. Что нашёл Уолтер по пути в Зазеркалье (Through the Looking Glass and What Walter Found There).mkv
Формат : Matroska
Версия формата : Version 4 / Version 2
Размер файла : 1,41 Гбайт
Продолжительность : 43 м.
Общий поток : 4678 Кбит/сек
Название фильма : 06. Что нашёл Уолтер по пути в Зазеркалье (Through the Looking Glass and What Walter Found There)
Дата кодирования : UTC 2010-02-22 21:41:31
Программа кодирования : mkvmerge v5.8.0 ('No Sleep / Pillow') built on Sep 30 2012 10:57:14
Библиотека кодирования : libebml v1.3.0 + libmatroska v1.4.0

Видео
Идентификатор : 1
Формат : AVC
Формат/Информация : Advanced Video Codec
Профиль формата : High@L3.1
Параметр CABAC формата : Нет
Параметр ReFrames формата : 2 кадра
Идентификатор кодека : V_MPEG4/ISO/AVC
Продолжительность : 43 м.
Битрейт : 4009 Кбит/сек
Ширина : 1280 пикселей
Высота : 720 пикселей
Соотношение сторон : 16:9
Режим частоты кадров : Постоянный
Частота кадров : 23,976 кадра/сек
Цветовое пространство : YUV
Субдискретизация насыщенности : 4:2:0
Битовая глубина : 8 бит
Тип развёртки : Прогрессивная
Бит/(Пиксели*Кадры) : 0.181
Размер потока : 1,21 Гбайт (86%)
Заголовок : 06. Что нашёл Уолтер по пути в Зазеркалье (Through the Looking Glass and What Walter Found There)
Язык : English
Default : Да
Forced : Нет
Основные цвета : BT.709
Характеристики трансфера : BT.709
Коэффициенты матрицы : BT.709

Аудио #1
Идентификатор : 2
Формат : AC-3
Формат/Информация : Audio Coding 3
Расширение режима : CM (complete main)
Параметр Endianness формата : Big
Идентификатор кодека : A_AC3
Продолжительность : 43 м.
Вид битрейта : Постоянный
Битрейт : 192 Кбит/сек
Каналы : 2 канала
Расположение каналов : Front: L R
Частота : 48,0 КГц
Битовая глубина : 16 бит
Метод сжатия : С потерями
Размер потока : 59,3 Мбайт (4%)
Заголовок : DUB TV-3
Язык : Russian
Default : Да
Forced : Да

Аудио #2
Идентификатор : 3
Формат : AC-3
Формат/Информация : Audio Coding 3
Расширение режима : CM (complete main)
Параметр Endianness формата : Big
Идентификатор кодека : A_AC3
Продолжительность : 43 м.
Вид битрейта : Постоянный
Битрейт : 384 Кбит/сек
Каналы : 6 каналов
Расположение каналов : Front: L C R, Side: L R, LFE
Частота : 48,0 КГц
Битовая глубина : 16 бит
Метод сжатия : С потерями
Размер потока : 119 Мбайт (8%)
Заголовок : Eng DD5.1
Язык : English
Default : Нет
Forced : Нет
Общее
Уникальный идентификатор : 172013456385199051350514818905459371968 (0x8168962EA0A875FB86C6D8F06327AFC0)
Полное имя : E:\UPLOADED\СЕРИАЛЫ\FRINGE\FRINGE (ГРАНЬ) SEASON 5\07. Пять-двадцать-десять (Five-Twenty-Ten).mkv
Формат : Matroska
Версия формата : Version 4 / Version 2
Размер файла : 1,42 Гбайт
Продолжительность : 43 м.
Общий поток : 4698 Кбит/сек
Название фильма : 07. Пять-двадцать-десять (Five-Twenty-Ten)
Дата кодирования : UTC 2010-02-22 21:41:31
Программа кодирования : mkvmerge v5.8.0 ('No Sleep / Pillow') built on Sep 30 2012 10:57:14
Библиотека кодирования : libebml v1.3.0 + libmatroska v1.4.0

Видео
Идентификатор : 1
Формат : AVC
Формат/Информация : Advanced Video Codec
Профиль формата : High@L3.1
Параметр CABAC формата : Нет
Параметр ReFrames формата : 2 кадра
Идентификатор кодека : V_MPEG4/ISO/AVC
Продолжительность : 43 м.
Битрейт : 4029 Кбит/сек
Ширина : 1280 пикселей
Высота : 720 пикселей
Соотношение сторон : 16:9
Режим частоты кадров : Постоянный
Частота кадров : 23,976 кадра/сек
Цветовое пространство : YUV
Субдискретизация насыщенности : 4:2:0
Битовая глубина : 8 бит
Тип развёртки : Прогрессивная
Бит/(Пиксели*Кадры) : 0.182
Размер потока : 1,22 Гбайт (86%)
Заголовок : 07. Пять-двадцать-десять (Five-Twenty-Ten)
Язык : English
Default : Да
Forced : Нет
Основные цвета : BT.709
Характеристики трансфера : BT.709
Коэффициенты матрицы : BT.709

Аудио #1
Идентификатор : 2
Формат : AC-3
Формат/Информация : Audio Coding 3
Расширение режима : CM (complete main)
Параметр Endianness формата : Big
Идентификатор кодека : A_AC3
Продолжительность : 43 м.
Вид битрейта : Постоянный
Битрейт : 192 Кбит/сек
Каналы : 2 канала
Расположение каналов : Front: L R
Частота : 48,0 КГц
Битовая глубина : 16 бит
Метод сжатия : С потерями
Размер потока : 59,4 Мбайт (4%)
Заголовок : DUB TV-3
Язык : Russian
Default : Да
Forced : Да

Аудио #2
Идентификатор : 3
Формат : AC-3
Формат/Информация : Audio Coding 3
Расширение режима : CM (complete main)
Параметр Endianness формата : Big
Идентификатор кодека : A_AC3
Продолжительность : 43 м.
Вид битрейта : Постоянный
Битрейт : 384 Кбит/сек
Каналы : 6 каналов
Расположение каналов : Front: L C R, Side: L R, LFE
Частота : 48,0 КГц
Битовая глубина : 16 бит
Метод сжатия : С потерями
Размер потока : 119 Мбайт (8%)
Заголовок : Eng DD5.1
Язык : English
Default : Нет
Forced : Нет
Общее
Уникальный идентификатор : 228198958423820023838678319763105147617 (0xABAD854E9A725792AE83417A89BA6AE1)
Полное имя : E:\UPLOADED\СЕРИАЛЫ\FRINGE\FRINGE (ГРАНЬ) SEASON 5\08. Человеческий род (Human race).mkv
Формат : Matroska
Версия формата : Version 4 / Version 2
Размер файла : 1,46 Гбайт
Продолжительность : 43 м.
Общий поток : 4777 Кбит/сек
Название фильма : 08. Человеческий род (Human race)
Дата кодирования : UTC 2010-02-22 21:41:31
Программа кодирования : mkvmerge v5.8.0 ('No Sleep / Pillow') built on Sep 30 2012 10:57:14
Библиотека кодирования : libebml v1.3.0 + libmatroska v1.4.0

Видео
Идентификатор : 1
Формат : AVC
Формат/Информация : Advanced Video Codec
Профиль формата : High@L3.1
Параметр CABAC формата : Нет
Параметр ReFrames формата : 2 кадра
Идентификатор кодека : V_MPEG4/ISO/AVC
Продолжительность : 43 м.
Битрейт : 4106 Кбит/сек
Ширина : 1280 пикселей
Высота : 720 пикселей
Соотношение сторон : 16:9
Режим частоты кадров : Постоянный
Частота кадров : 23,976 кадра/сек
Цветовое пространство : YUV
Субдискретизация насыщенности : 4:2:0
Битовая глубина : 8 бит
Тип развёртки : Прогрессивная
Бит/(Пиксели*Кадры) : 0.186
Размер потока : 1,26 Гбайт (86%)
Заголовок : 08. Человеческий род (Human race)
Язык : English
Default : Да
Forced : Нет
Основные цвета : BT.709
Характеристики трансфера : BT.709
Коэффициенты матрицы : BT.709

Аудио #1
Идентификатор : 2
Формат : AC-3
Формат/Информация : Audio Coding 3
Расширение режима : CM (complete main)
Параметр Endianness формата : Big
Идентификатор кодека : A_AC3
Продолжительность : 43 м.
Вид битрейта : Постоянный
Битрейт : 192 Кбит/сек
Каналы : 2 канала
Расположение каналов : Front: L R
Частота : 48,0 КГц
Битовая глубина : 16 бит
Метод сжатия : С потерями
Размер потока : 60,2 Мбайт (4%)
Заголовок : DUB TV-3
Язык : Russian
Default : Да
Forced : Да

Аудио #2
Идентификатор : 3
Формат : AC-3
Формат/Информация : Audio Coding 3
Расширение режима : CM (complete main)
Параметр Endianness формата : Big
Идентификатор кодека : A_AC3
Продолжительность : 43 м.
Вид битрейта : Постоянный
Битрейт : 384 Кбит/сек
Каналы : 6 каналов
Расположение каналов : Front: L C R, Side: L R, LFE
Частота : 48,0 КГц
Битовая глубина : 16 бит
Метод сжатия : С потерями
Размер потока : 120 Мбайт (8%)
Заголовок : Eng DD5.1
Язык : English
Default : Нет
Forced : Нет
Общее
Уникальный идентификатор : 248544638061686183269339977592064871376 (0xBAFBF4C2B4EC2255896738DED5128BD0)
Полное имя : E:\UPLOADED\СЕРИАЛЫ\FRINGE\FRINGE (ГРАНЬ) SEASON 5\09. Чёрная марка (Black Blotter).mkv
Формат : Matroska
Версия формата : Version 4 / Version 2
Размер файла : 1,37 Гбайт
Продолжительность : 43 м.
Общий поток : 4561 Кбит/сек
Название фильма : 09. Чёрная марка (Black Blotter)
Дата кодирования : UTC 2010-02-22 21:41:31
Программа кодирования : mkvmerge v5.8.0 ('No Sleep / Pillow') built on Sep 30 2012 10:57:14
Библиотека кодирования : libebml v1.3.0 + libmatroska v1.4.0

Видео
Идентификатор : 1
Формат : AVC
Формат/Информация : Advanced Video Codec
Профиль формата : High@L3.1
Параметр CABAC формата : Нет
Параметр ReFrames формата : 2 кадра
Идентификатор кодека : V_MPEG4/ISO/AVC
Продолжительность : 43 м.
Битрейт : 3894 Кбит/сек
Ширина : 1280 пикселей
Высота : 720 пикселей
Соотношение сторон : 16:9
Режим частоты кадров : Постоянный
Частота кадров : 23,976 кадра/сек
Цветовое пространство : YUV
Субдискретизация насыщенности : 4:2:0
Битовая глубина : 8 бит
Тип развёртки : Прогрессивная
Бит/(Пиксели*Кадры) : 0.176
Размер потока : 1,17 Гбайт (85%)
Заголовок : 09. Чёрная марка (Black Blotter)
Язык : English
Default : Да
Forced : Нет
Основные цвета : BT.709
Характеристики трансфера : BT.709
Коэффициенты матрицы : BT.709

Аудио #1
Идентификатор : 2
Формат : AC-3
Формат/Информация : Audio Coding 3
Расширение режима : CM (complete main)
Параметр Endianness формата : Big
Идентификатор кодека : A_AC3
Продолжительность : 43 м.
Вид битрейта : Постоянный
Битрейт : 192 Кбит/сек
Каналы : 2 канала
Расположение каналов : Front: L R
Частота : 48,0 КГц
Битовая глубина : 16 бит
Метод сжатия : С потерями
Размер потока : 59,1 Мбайт (4%)
Заголовок : DUB TV-3
Язык : Russian
Default : Да
Forced : Да

Аудио #2
Идентификатор : 3
Формат : AC-3
Формат/Информация : Audio Coding 3
Расширение режима : CM (complete main)
Параметр Endianness формата : Big
Идентификатор кодека : A_AC3
Продолжительность : 43 м.
Вид битрейта : Постоянный
Битрейт : 384 Кбит/сек
Каналы : 6 каналов
Расположение каналов : Front: L C R, Side: L R, LFE
Частота : 48,0 КГц
Битовая глубина : 16 бит
Метод сжатия : С потерями
Размер потока : 118 Мбайт (8%)
Заголовок : Eng DD5.1
Язык : English
Default : Нет
Forced : Нет
Общее
Уникальный идентификатор : 235567334112360056139353026438576814717 (0xB1389E46DAA1B91A8F49C1C6E9FD3A7D)
Полное имя : E:\UPLOADED\СЕРИАЛЫ\FRINGE\FRINGE (ГРАНЬ) SEASON 5\10. Аномалия XB-6783746 (Anomaly XB-6783746).mkv
Формат : Matroska
Версия формата : Version 4 / Version 2
Размер файла : 1,43 Гбайт
Продолжительность : 43 м.
Общий поток : 4657 Кбит/сек
Название фильма : 10. Аномалия XB-6783746 (Anomaly XB-6783746)
Дата кодирования : UTC 2010-02-22 21:41:31
Программа кодирования : mkvmerge v5.8.0 ('No Sleep / Pillow') built on Sep 30 2012 10:57:14
Библиотека кодирования : libebml v1.3.0 + libmatroska v1.4.0

Видео
Идентификатор : 1
Формат : AVC
Формат/Информация : Advanced Video Codec
Профиль формата : High@L3.1
Параметр CABAC формата : Нет
Параметр ReFrames формата : 2 кадра
Идентификатор кодека : V_MPEG4/ISO/AVC
Продолжительность : 43 м.
Битрейт : 3989 Кбит/сек
Ширина : 1280 пикселей
Высота : 720 пикселей
Соотношение сторон : 16:9
Режим частоты кадров : Постоянный
Частота кадров : 23,976 кадра/сек
Цветовое пространство : YUV
Субдискретизация насыщенности : 4:2:0
Битовая глубина : 8 бит
Тип развёртки : Прогрессивная
Бит/(Пиксели*Кадры) : 0.181
Размер потока : 1,22 Гбайт (86%)
Заголовок : 10. Аномалия XB-6783746 (Anomaly XB-6783746)
Язык : English
Default : Да
Forced : Нет
Основные цвета : BT.709
Характеристики трансфера : BT.709
Коэффициенты матрицы : BT.709

Аудио #1
Идентификатор : 2
Формат : AC-3
Формат/Информация : Audio Coding 3
Расширение режима : CM (complete main)
Параметр Endianness формата : Big
Идентификатор кодека : A_AC3
Продолжительность : 43 м.
Вид битрейта : Постоянный
Битрейт : 192 Кбит/сек
Каналы : 2 канала
Расположение каналов : Front: L R
Частота : 48,0 КГц
Битовая глубина : 16 бит
Метод сжатия : С потерями
Размер потока : 60,2 Мбайт (4%)
Заголовок : DUB TV-3
Язык : Russian
Default : Да
Forced : Да

Аудио #2
Идентификатор : 3
Формат : AC-3
Формат/Информация : Audio Coding 3
Расширение режима : CM (complete main)
Параметр Endianness формата : Big
Идентификатор кодека : A_AC3
Продолжительность : 43 м.
Вид битрейта : Постоянный
Битрейт : 384 Кбит/сек
Каналы : 6 каналов
Расположение каналов : Front: L C R, Side: L R, LFE
Частота : 48,0 КГц
Битовая глубина : 16 бит
Метод сжатия : С потерями
Размер потока : 120 Мбайт (8%)
Заголовок : Eng DD5.1
Язык : English
Default : Нет
Forced : Нет
Общее
Уникальный идентификатор : 253167893025075747793421303767276043561 (0xBE765CD43C098A25B51FD87583A9BD29)
Полное имя : E:\UPLOADED\СЕРИАЛЫ\FRINGE\FRINGE (ГРАНЬ) SEASON 5\11. Мальчик должен жить (The Boy Must Live).mkv
Формат : Matroska
Версия формата : Version 4 / Version 2
Размер файла : 1,41 Гбайт
Продолжительность : 43 м.
Общий поток : 4636 Кбит/сек
Название фильма : 11. Мальчик должен жить (The Boy Must Live)
Дата кодирования : UTC 2010-02-22 21:41:31
Программа кодирования : mkvmerge v5.8.0 ('No Sleep / Pillow') built on Sep 30 2012 10:57:14
Библиотека кодирования : libebml v1.3.0 + libmatroska v1.4.0

Видео
Идентификатор : 1
Формат : AVC
Формат/Информация : Advanced Video Codec
Профиль формата : High@L3.1
Параметр CABAC формата : Нет
Параметр ReFrames формата : 2 кадра
Идентификатор кодека : V_MPEG4/ISO/AVC
Продолжительность : 43 м.
Битрейт : 3968 Кбит/сек
Ширина : 1280 пикселей
Высота : 720 пикселей
Соотношение сторон : 16:9
Режим частоты кадров : Постоянный
Частота кадров : 23,976 кадра/сек
Цветовое пространство : YUV
Субдискретизация насыщенности : 4:2:0
Битовая глубина : 8 бит
Тип развёртки : Прогрессивная
Бит/(Пиксели*Кадры) : 0.180
Размер потока : 1,21 Гбайт (86%)
Заголовок : 11. Мальчик должен жить (The Boy Must Live)
Язык : English
Default : Да
Forced : Нет
Основные цвета : BT.709
Характеристики трансфера : BT.709
Коэффициенты матрицы : BT.709

Аудио #1
Идентификатор : 2
Формат : AC-3
Формат/Информация : Audio Coding 3
Расширение режима : CM (complete main)
Параметр Endianness формата : Big
Идентификатор кодека : A_AC3
Продолжительность : 43 м.
Вид битрейта : Постоянный
Битрейт : 192 Кбит/сек
Каналы : 2 канала
Расположение каналов : Front: L R
Частота : 48,0 КГц
Битовая глубина : 16 бит
Метод сжатия : С потерями
Размер потока : 59,8 Мбайт (4%)
Заголовок : DUB TV-3
Язык : Russian
Default : Да
Forced : Да

Аудио #2
Идентификатор : 3
Формат : AC-3
Формат/Информация : Audio Coding 3
Расширение режима : CM (complete main)
Параметр Endianness формата : Big
Идентификатор кодека : A_AC3
Продолжительность : 43 м.
Вид битрейта : Постоянный
Битрейт : 384 Кбит/сек
Каналы : 6 каналов
Расположение каналов : Front: L C R, Side: L R, LFE
Частота : 48,0 КГц
Битовая глубина : 16 бит
Метод сжатия : С потерями
Размер потока : 120 Мбайт (8%)
Заголовок : Eng DD5.1
Язык : English
Default : Нет
Forced : Нет
Общее
Уникальный идентификатор : 171834620304576983210031512554876487164 (0x814624E1F2CCEA7891B37F3E57C8C5FC)
Полное имя : E:\UPLOADED\СЕРИАЛЫ\FRINGE\FRINGE (ГРАНЬ) SEASON 5\12. Свобода (Liberty).mkv
Формат : Matroska
Версия формата : Version 4 / Version 2
Размер файла : 1,35 Гбайт
Продолжительность : 43 м.
Общий поток : 4500 Кбит/сек
Название фильма : 12. Свобода (Liberty)
Дата кодирования : UTC 2010-02-22 21:41:31
Программа кодирования : mkvmerge v5.8.0 ('No Sleep / Pillow') built on Sep 30 2012 10:57:14
Библиотека кодирования : libebml v1.3.0 + libmatroska v1.4.0

Видео
Идентификатор : 1
Формат : AVC
Формат/Информация : Advanced Video Codec
Профиль формата : High@L3.1
Параметр CABAC формата : Нет
Параметр ReFrames формата : 2 кадра
Идентификатор кодека : V_MPEG4/ISO/AVC
Продолжительность : 43 м.
Битрейт : 3834 Кбит/сек
Ширина : 1280 пикселей
Высота : 720 пикселей
Соотношение сторон : 16:9
Режим частоты кадров : Постоянный
Частота кадров : 23,976 кадра/сек
Цветовое пространство : YUV
Субдискретизация насыщенности : 4:2:0
Битовая глубина : 8 бит
Тип развёртки : Прогрессивная
Бит/(Пиксели*Кадры) : 0.174
Размер потока : 1,15 Гбайт (85%)
Заголовок : 12. Свобода (Liberty)
Язык : English
Default : Да
Forced : Нет
Основные цвета : BT.709
Характеристики трансфера : BT.709
Коэффициенты матрицы : BT.709

Аудио #1
Идентификатор : 2
Формат : AC-3
Формат/Информация : Audio Coding 3
Расширение режима : CM (complete main)
Параметр Endianness формата : Big
Идентификатор кодека : A_AC3
Продолжительность : 43 м.
Вид битрейта : Постоянный
Битрейт : 192 Кбит/сек
Каналы : 2 канала
Расположение каналов : Front: L R
Частота : 48,0 КГц
Битовая глубина : 16 бит
Метод сжатия : С потерями
Размер потока : 59,1 Мбайт (4%)
Заголовок : DUB TV-3
Язык : Russian
Default : Да
Forced : Да

Аудио #2
Идентификатор : 3
Формат : AC-3
Формат/Информация : Audio Coding 3
Расширение режима : CM (complete main)
Параметр Endianness формата : Big
Идентификатор кодека : A_AC3
Продолжительность : 43 м.
Вид битрейта : Постоянный
Битрейт : 384 Кбит/сек
Каналы : 6 каналов
Расположение каналов : Front: L C R, Side: L R, LFE
Частота : 48,0 КГц
Битовая глубина : 16 бит
Метод сжатия : С потерями
Размер потока : 118 Мбайт (9%)
Заголовок : Eng DD5.1
Язык : English
Default : Нет
Forced : Нет
Общее
Уникальный идентификатор : 230823455866015152712670461113424962999 (0xADA6FB05738929C297D886CD518865B7)
Полное имя : E:\UPLOADED\СЕРИАЛЫ\FRINGE\FRINGE (ГРАНЬ) SEASON 5\13. Враг судьбы (An Enemy of Fate).mkv
Формат : Matroska
Версия формата : Version 4 / Version 2
Размер файла : 1,43 Гбайт
Продолжительность : 43 м.
Общий поток : 4667 Кбит/сек
Название фильма : 13. Враг судьбы (An Enemy of Fate)
Дата кодирования : UTC 2010-02-22 21:41:31
Программа кодирования : mkvmerge v5.8.0 ('No Sleep / Pillow') built on Sep 30 2012 10:57:14
Библиотека кодирования : libebml v1.3.0 + libmatroska v1.4.0

Видео
Идентификатор : 1
Формат : AVC
Формат/Информация : Advanced Video Codec
Профиль формата : High@L3.1
Параметр CABAC формата : Нет
Параметр ReFrames формата : 2 кадра
Идентификатор кодека : V_MPEG4/ISO/AVC
Продолжительность : 43 м.
Битрейт : 3998 Кбит/сек
Ширина : 1280 пикселей
Высота : 720 пикселей
Соотношение сторон : 16:9
Режим частоты кадров : Постоянный
Частота кадров : 23,976 кадра/сек
Цветовое пространство : YUV
Субдискретизация насыщенности : 4:2:0
Битовая глубина : 8 бит
Тип развёртки : Прогрессивная
Бит/(Пиксели*Кадры) : 0.181
Размер потока : 1,23 Гбайт (86%)
Заголовок : 13. Враг судьбы (An Enemy of Fate)
Язык : English
Default : Да
Forced : Нет
Основные цвета : BT.709
Характеристики трансфера : BT.709
Коэффициенты матрицы : BT.709

Аудио #1
Идентификатор : 2
Формат : AC-3
Формат/Информация : Audio Coding 3
Расширение режима : CM (complete main)
Параметр Endianness формата : Big
Идентификатор кодека : A_AC3
Продолжительность : 43 м.
Вид битрейта : Постоянный
Битрейт : 192 Кбит/сек
Каналы : 2 канала
Расположение каналов : Front: L R
Частота : 48,0 КГц
Битовая глубина : 16 бит
Метод сжатия : С потерями
Размер потока : 60,3 Мбайт (4%)
Заголовок : DUB TV-3
Язык : Russian
Default : Да
Forced : Да

Аудио #2
Идентификатор : 3
Формат : AC-3
Формат/Информация : Audio Coding 3
Расширение режима : CM (complete main)
Параметр Endianness формата : Big
Идентификатор кодека : A_AC3
Продолжительность : 43 м.
Вид битрейта : Постоянный
Битрейт : 384 Кбит/сек
Каналы : 6 каналов
Расположение каналов : Front: L C R, Side: L R, LFE
Частота : 48,0 КГц
Битовая глубина : 16 бит
Метод сжатия : С потерями
Размер потока : 121 Мбайт (8%)
Заголовок : Eng DD5.1
Язык : English
Default : Нет
Forced : Нет
01. Разделитель мыслей модель номер 11 (Transilience Thought Unifier model 11)
02. В отсутствие (In Absentia)
03. Тот, кто записывает историю (The Recordist)
04. Пуля, спасшая мир (The Bullet that Saved the World)
05. Настоящая история (An Origin Story)
06. Что нашёл Уолтер по пути в Зазеркалье (Through the Looking Glass and What Walter Found There)
07. Пять-двадцать-десять (Five-Twenty-Ten)
08. Человеческий род (Human race)
09. Чёрная марка (Black Blotter)
10. Аномалия XB-6783746 (Anomaly XB-6783746)
11. Мальчик должен жить (The Boy Must Live)
12. Свобода (Liberty)
13. Враг судьбы (An Enemy of Fate)
В титрах различных серий «Грани» можно увидеть скрытые в кадрах символы, так называемые «глифы». В символах используются «желтые точки», символизируя вместе особый Глифический алфавит. В конце каждой серии можно по буквам составить ключевое слово.
В десятой серии третьего сезона имеется ссылка на телесериал «Твин Пикс». Профессор Уолтер Бишоп для проведения сеанса гипноза надевает стерео-очки, одна линза которых красная, а другая — синяя. По его словам, эти очки помогают видеть ауру человека, а изобрел их его знакомый — доктор Джекоби. Аналогичные очки носил психиатр д-р Джекоби в сериале «Твин Пикс».
Начиная с третьего сезона в сериале появляются разные вступительные титры: красные, синие и серые. Они оповещают зрителя о том, в каком пространстве будет происходить эта серия.
miha2154 - за звук
P.S. В 11 серии временами ОТСУТСТВУЕТ ПЕРЕВОД (около 4 минут) - заменён озвучкой LOSTFILM

Грань / Fringe 1-Й СЕЗОН ТВ-3
Грань / Fringe 2-Й СЕЗОН ТВ-3
Грань / Fringe 3-Й СЕЗОН ТВ-3
Грань / Fringe 4-Й СЕЗОН ТВ-3
Продолжительность серии: ~00:43:00
Качество видео: WEB-DL 720p
Формат: MKV
Видеокодек: H.264
Битрейт видео:4000 Кбит/сек
Размер кадра:1280x720 / ~ 4000 kbps / 23.976 fps
Аудиокодек:AC3
Битрейт аудио:
аудио rus:
Аудио: AC3 Dolby Digital / 48 KHz / 192 kbps / 2 ch | дублированный (ТВ3)
аудио eng:
Аудио: AC3 Dolby Digital / 48 KHz / 384 kbps / 6 ch| оригинальная дорожка

Грань/Fringe все раздачи сериала

Скриншоты:


ВРЕМЯ РАЗДАЧИ : 24/7 - КРУГЛОСУТОЧНО

[NNM-Club.ru]_FRINGE (GRAN') SEASON 5.torrent
 Торрент: Платиновая раздача  Зарегистрирован
 
Скачать


 Зарегистрирован:   19 Июл 2013 17:08:37
 Размер:   18.2 GB  (
 Рейтинг:   4.9 (Голосов: 88)
 Поблагодарили:   275
 Проверка:   Оформление проверено модератором 23 Июл 2013 12:40:59
Как cкачать  ·  Как раздать  ·  Правильно оформить  ·  Поднять ратио!  
Walksy
Стаж: 9 лет 11 мес.
Сообщений: 75
Ratio: 28.085
Раздал: 4.119 TB
90.48%
Откуда: Новосибирск
russia.gif
Спасибочки! :клево:
Показать сообщения:   
Начать новую тему   Ответить на тему    Торрент-трекер NNM-Club -> Зарубежные сериалы -> Грань / Fringe Часовой пояс: GMT + 3
Страницы:   Пред.  1, 2
Страница 2 из 2