Классический форум-трекер
canvas not supported
Нас вместе: 4 232 371

Роммель / Rommel (2012) BDRemux [1080i] [AVO]


 
 
RSS
Начать новую тему   Ответить на тему    Торрент-трекер NNM-Club -> Зарубежное кино -> Зарубежные Фильмы (HD, FHD)
Автор Сообщение
Луць ®
Стаж: 11 лет 4 мес.
Сообщений: 880
Ratio: 649.72
Раздал: 52.25 TB
Поблагодарили: 47551
100%
Откуда: г.Луцк
ukraine.gif
Роммель / Rommel (2012) BDRemux
Год выпуска: 2012
Жанр: Военный, Биография, История
Выпущено: Германия, Франция, Австрия, ARD Degeto Film, Bayerischer Rundfunk (BR), Cactus Films

Перевод: Авторский одноголосый закадровый [Ю. Сербин]
Язык субтитров: Нет

Режиссер: Николаус Штайн Фон Каменский
Актеры: Ульрих Тукур, Тим Бергманн, Рольф Канис, Артур Клемт, Томас Лимпинзель, Патрик Мёллекен, Роберт Шупп, Питер Вульф, Хабертус Хартманн, Клаус Й. Берендт, Михаэль Кранц, Ганс Кремер, Питер Кремер, Вики Крипс, Оливер Негеле, Хари Принц, Беньямин Задлер

Описание фильма:
В январе 1944 Роммель был назначен командующим группой армий «В» в Северной Франции. Он попытался сделать «Атлантический вал» серьёзным препятствием для противника. Однако из-за стратегических разногласий с командующим всей войсковой группировкой во Франции - фельдмаршалом Рундштедтом, единый план обороны западной границы рейха не был выработан, что и привело к неоперативности и несогласованности действий немецких войск во время высадки союзников в Нормандии 6 июня 1944 года.


Дата мировой премьеры: 1 ноября 2012
Продолжительность: 01:58:38
Качество видео: BDRemux

Видеокодек: MPEG-4 AVC/H.264
Контейнер: MKV
Размер кадра: 1920x1080p

Битрейт видео: 17904 Кбит/с
Аудио #1: Русский (DTS, 6 ch, 1510 Кбит/с) [Авторский одноголосный] Сербин
Общее
Уникальный идентификатор : 243914874572596596614384875537847002641 (0xB7804BCC090B5DFEB97D06C4AE73A611)
Полное имя : D:\Rommel' (2012) Blu-Ray Remux [1080i].mkv
Формат : Matroska
Версия формата : Version 4 / Version 2
Размер файла : 16,1 Гбайт
Продолжительность : 1 ч. 58 м.
Режим общего битрейта : Переменный
Общий поток : 19,4 Мбит/сек
Дата кодирования : UTC 2013-08-02 08:19:13
Программа кодирования : mkvmerge v6.3.0 ('You can't stop me!') built on Jun 28 2013 20:09:41
Библиотека кодирования : libebml v1.3.0 + libmatroska v1.4.0

Видео
Идентификатор : 1
Формат : AVC
Формат/Информация : Advanced Video Codec
Профиль формата : High@L4.1
Параметр CABAC формата : Да
Параметр ReFrames формата : 4 кадра
Идентификатор кодека : V_MPEG4/ISO/AVC
Продолжительность : 1 ч. 58 м.
Вид битрейта : Переменный
Битрейт : 17,5 Мбит/сек
Максимальный битрейт : 30,0 Мбит/сек
Ширина : 1920 пикселей
Высота : 1080 пикселей
Соотношение сторон : 16:9
Режим частоты кадров : Постоянный
Частота кадров : 25,000 кадров/сек
Цветовое пространство : YUV
Субдискретизация насыщенности : 4:2:0
Битовая глубина : 8 бит
Тип развёртки : MBAFF
Бит/(Пиксели*Кадры) : 0.338
Размер потока : 14,5 Гбайт (90%)
Default : Да
Forced : Нет
Основные цвета : BT.709
Характеристики трансфера : BT.709
Коэффициенты матрицы : BT.709

Аудио
Идентификатор : 2
Формат : DTS
Формат/Информация : Digital Theater Systems
Режим : 16
Параметр Endianness формата : Big
Идентификатор кодека : A_DTS
Продолжительность : 1 ч. 58 м.
Вид битрейта : Постоянный
Битрейт : 1509 Кбит/сек
Каналы : 6 каналов
Расположение каналов : Front: L C R, Side: L R, LFE
Частота : 48,0 КГц
Битовая глубина : 24 бит
Метод сжатия : С потерями
Размер потока : 1,25 Гбайт (8%)
Default : Да
Forced : Нет


Скриншоты:


Релизы "Роммель" на nnm-club.me

Время раздачи: с 10:00 до 23:00 (мск)
[NNM-Club.me]_Rommel' (2012) Blu-Ray Remux [1080i].mkv.torrent
 Торрент: Платиновая раздача  Зарегистрирован
 
Скачать


Примагнититься
 Зарегистрирован:   05 Авг 2013 12:23:25
 Размер:   16.1 GB  (
 Рейтинг:   4.7 (Голосов: 24)
 Поблагодарили:   106
 Проверка:   Оформление проверено модератором 06 Авг 2013 14:02:32
Как cкачать  ·  Как раздать  ·  Правильно оформить  ·  Поднять ратио!  
Луць ®
Стаж: 11 лет 4 мес.
Сообщений: 880
Ratio: 649.72
Раздал: 52.25 TB
Поблагодарили: 47551
100%
Откуда: г.Луцк
ukraine.gif
Всем прятного просмотра!
pacienti
 
Стаж: 11 лет 3 мес.
Сообщений: 110
Ratio: 49.304
100%
Откуда: Москва
russia.gif
спасибо :)
Показать сообщения:   
Начать новую тему   Ответить на тему    Торрент-трекер NNM-Club -> Зарубежное кино -> Зарубежные Фильмы (HD, FHD) Часовой пояс: GMT + 3
Страница 1 из 1