Классический форум-трекер
canvas not supported
Нас вместе: 4 233 359

Клошар / The Caveman's Valentine (2001) DVDRip


 
 
RSS
Начать новую тему   Ответить на тему    Торрент-трекер NNM-Club -> Зарубежное кино -> Зарубежные Фильмы (SD)
Автор Сообщение
smpeal ®
Стаж: 11 лет 9 мес.
Сообщений: 62
Ratio: 99.87
Поблагодарили: 7340
100%
ussr.gif
Клошар / The Caveman's Valentine (2001) DVDRip
Год выпуска: 2001
Жанр: Детектив, Триллер

Описание фильма:
Главный герой фильма был некогда замечательным пианистом и композитором. Звали его Ромьюлус Ледбеттер, у него была семья, дочь и место преподавателя в престижном музыкальном колледже Джиллиярд.

Теперь он - "пещерный человек", безумный бродяга, живущий в декоративном гроте в Нью-Йоркском центральном парке.
Однажды утром, в день Святого Валентина, Ромьюлус обнаруживает на дереве рядом со своей пещерой - замерзшего мертвеца. Полиция убеждена, что покойный - обычная жертва несчастного случая. Но знакомый Ромьюлуса, бомж-наркоман, убеждает героя, что произошло преднамеренное убийство. И тогда пещерный человек решает сам расследовать преступление...

Режиссер: Кейси Леммонс
Актеры: Сэмюэл Л. Джексон, Энн Магнусон, Онжаню Эллис, Тамара Тьюни, Энтони Майкл Холл, Колм Фиоре

Продолжительность: 01:41:03
Качество видео: DVDRip
Перевод: Многоголосый закадровый
Язык субтитроов: Отсутствуют



Дата мировой премьеры: 19 января 2001, США, Кинофестиваль «Сандэнс»
Дата выхода DVD релиза: 18 марта 2010

Видеокодек: Xvid
Битрейт видео: 1555 Kbps
Размер кадра: 640*336
Аудиокодек: AC3, 6 каналов
Битрейт аудио: 448 Kbps
Общее
Уникальный идентификатор : 219876780828234115699745029939528634362 (0xA56ABA45C7A681EFAD82620BF68E8FFA)
Полное имя : Z:\Фильмы\Зарубежные\Клошар (2001) DVDRip.mkv
Формат : Matroska
Версия формата : Version 2
Размер файла : 1,44 Гбайт
Продолжительность : 1 ч. 41 м.
Общий поток : 2044 Кбит/сек
Дата кодирования : UTC 2013-08-11 18:31:14
Программа кодирования : mkvmerge v5.2.1 ('A Far Off Place') built on Feb 6 2012 10:08:15
Библиотека кодирования : libebml v1.2.3 + libmatroska v1.3.0

Видео
Идентификатор : 1
Формат : MPEG-4 Visual
Профиль формата : Advanced Simple@L5
Параметр BVOP формата : Да
Параметр QPel формата : Нет
Параметр GMC формата : Без точки перехода
Параметр матрицы формата : Default (H.263)
Идентификатор кодека : V_MS/VFW/FOURCC / XVID
Идентификатор кодека/Подсказка : XviD
Продолжительность : 1 ч. 41 м.
Битрейт : 1555 Кбит/сек
Ширина : 640 пикселей
Высота : 336 пикселей
Соотношение сторон : 1,905
Режим частоты кадров : Постоянный
Частота кадров : 25,000 кадров/сек
Цветовое пространство : YUV
Субдискретизация насыщенности : 4:2:0
Битовая глубина : 8 бит
Тип развёртки : Прогрессивная
Метод сжатия : С потерями
Бит/(Пиксели*Кадры) : 0.289
Размер потока : 1,10 Гбайт (76%)
Библиотека кодирования : XviD 64
Язык : Russian
Default : Да
Forced : Нет

Аудио
Идентификатор : 2
Формат : AC-3
Формат/Информация : Audio Coding 3
Расширение режима : CM (complete main)
Параметр Endianness формата : Big
Режим смешивания : Header stripping
Идентификатор кодека : A_AC3
Продолжительность : 1 ч. 41 м.
Вид битрейта : Постоянный
Битрейт : 448 Кбит/сек
Каналы : 6 каналов
Расположение каналов : Front: L C R, Side: L R, LFE
Частота : 48,0 КГц
Битовая глубина : 16 бит
Метод сжатия : С потерями
Задержка видео : 750 мс.
Размер потока : 324 Мбайт (22%)
Заголовок : AC3 5.1 RUS
Язык : Russian
Default : Да
Forced : Нет
Скриншоты:


Время раздачи: Выходные с 12.00 по 23.00, иногда вечером в будни
[NNM-Club.me]_The_caveman's_valentine_2001_DVDRip_mkv.torrent
 Торрент: Платиновая раздача  Зарегистрирован
 
Скачать


Примагнититься
 Зарегистрирован:   12 Авг 2013 20:01:59
 Размер:   1.44 GB  (
 Рейтинг:   4.7 (Голосов: 26)
 Поблагодарили:   137
 Проверка:   Оформление проверено модератором 13 Авг 2013 19:12:41
Как cкачать  ·  Как раздать  ·  Правильно оформить  ·  Поднять ратио!  
PRO100DEAD
Стаж: 13 лет 8 мес.
Сообщений: 53
Ratio: 0.948
100%
russia.gif
Отличный фильм!!!
Kreator1974
Стаж: 11 лет 5 мес.
Сообщений: 652
Ratio: 8.562
100%
ukraine.gif
Средне.
Показать сообщения:   
Начать новую тему   Ответить на тему    Торрент-трекер NNM-Club -> Зарубежное кино -> Зарубежные Фильмы (SD) Часовой пояс: GMT + 3
Страница 1 из 1