Классический форум-трекер
canvas not supported
Нас вместе: 4 171 356

Ablaze My Sorrow - Anger, Hate and Fury (2002) [ALAC|Lossless]<Melodic Death Metal>


 
 
RSS
Начать новую тему   Ответить на тему    Торрент-трекер NNM-Club -> Аудио и Видео -> Музыка Lossless (ALAC)
Автор Сообщение
Kozlice ®
 
Стаж: 14 лет 1 мес.
Сообщений: 106
Ratio: 3.322
Раздал: 2.322 TB
Поблагодарили: 1828
100%
Откуда: Moscow, Russia
russia.gif
Ablaze My Sorrow - Anger, Hate and Fury (2002)
Год: 2002
Жанр: Melodic Death Metal
Продолжительность: 00:39:28

Кодек: ALAC
Битрейт: Lossless
Тип битрейта: VBR

Треклист:
1. "Erased / Relived" - 03:31
2. "Suicidal" - 02:46
3. "Where the Strong Live Forever" - 04:08
4. "Machine Supreme" - 02:07
5. "Paradies" - 05:24
6. "Retention of Illusion" - 03:11
7. "Thou Shalt Forever Suffer" - 02:24
8. "Shrouded Are the Pleasures of Flesh" - 03:23
9. "Heartless" - 06:25
10. "Slit Wide Open" - 02:44
11. "Ad Libitum" - 03:25
Код:

General
Complete name          : /Users/kozlice/Music/iTunes/iTunes Media/Music/Ablaze My Sorrow/Anger, Hate and Fury/01 Erased _ Relived.m4a
Format              : MPEG-4
Format profile            : Apple audio with iTunes info
Codec ID              : M4A
File size              : 29.2 MiB
Duration              : 3mn 31s
Overall bit rate mode        : Variable
Overall bit rate          : 1 157 Kbps
Album              : Anger, Hate and Fury
Album/Performer          : Ablaze My Sorrow
Track name            : Erased / Relived
Track name/Position        : 1
Track name/Total          : 11
Performer            : Ablaze My Sorrow
Genre              : Melodic Death Metal
Recorded date            : 2002
Encoded date            : UTC 2004-03-25 02:22:04
Tagged date            : UTC 2013-09-22 00:00:01
Writing application          : X Lossless Decoder 20121027, QuickTime 7.7.1
Cover              : Yes
Comment            : ExactAudioCopy v0.99pb4
iTunes_CDDB_1            : 8909DA0C+177674+11+150+16004+28472+47070+56597+80882+95176+105939+121144+150017+162315
iTunes_CDDB_TrackNumber        : 1

Audio
ID                : 1
Format              : ALAC
Codec ID              : alac
Codec ID/Info            : Apple Lossless Audio Codec
Duration              : 3mn 31s
Duration_LastFrame        : -8ms
Bit rate mode            : Variable
Bit rate              : 1 154 Kbps
Channel(s)            : 2 channels
Sampling rate            : 44.1 KHz
Bit depth              : 16 bits
Stream size            : 29.1 MiB (100%)
Language            : English
Encoded date            : UTC 2004-03-25 02:22:04
Tagged date            : UTC 2013-09-22 00:00:01

General
Complete name          : /Users/kozlice/Music/iTunes/iTunes Media/Music/Ablaze My Sorrow/Anger, Hate and Fury/02 Suicidal.m4a
Format              : MPEG-4
Format profile            : Apple audio with iTunes info
Codec ID              : M4A
File size              : 23.1 MiB
Duration              : 2mn 46s
Overall bit rate mode        : Variable
Overall bit rate          : 1 168 Kbps
Album              : Anger, Hate and Fury
Album/Performer          : Ablaze My Sorrow
Track name            : Suicidal
Track name/Position        : 2
Track name/Total          : 11
Performer            : Ablaze My Sorrow
Genre              : Melodic Death Metal
Recorded date            : 2002
Encoded date            : UTC 2003-09-12 22:01:48
Tagged date            : UTC 2013-09-22 00:00:02
Writing application          : X Lossless Decoder 20121027, QuickTime 7.7.1
Cover              : Yes
Comment            : ExactAudioCopy v0.99pb4
iTunes_CDDB_1            : 8909DA0C+177674+11+150+16004+28472+47070+56597+80882+95176+105939+121144+150017+162315
iTunes_CDDB_TrackNumber        : 2

Audio
ID                : 1
Format              : ALAC
Codec ID              : alac
Codec ID/Info            : Apple Lossless Audio Codec
Duration              : 2mn 46s
Duration_LastFrame        : -15ms
Bit rate mode            : Variable
Bit rate              : 1 163 Kbps
Channel(s)            : 2 channels
Sampling rate            : 44.1 KHz
Bit depth              : 16 bits
Stream size            : 23.0 MiB (100%)
Language            : English
Encoded date            : UTC 2003-09-12 22:01:48
Tagged date            : UTC 2013-09-22 00:00:02

General
Complete name          : /Users/kozlice/Music/iTunes/iTunes Media/Music/Ablaze My Sorrow/Anger, Hate and Fury/03 Where the Strong Live Forever.m4a
Format              : MPEG-4
Format profile            : Apple audio with iTunes info
Codec ID              : M4A
File size              : 33.9 MiB
Duration              : 4mn 7s
Overall bit rate mode        : Variable
Overall bit rate          : 1 148 Kbps
Album              : Anger, Hate and Fury
Album/Performer          : Ablaze My Sorrow
Track name            : Where the Strong Live Forever
Track name/Position        : 3
Track name/Total          : 11
Performer            : Ablaze My Sorrow
Genre              : Melodic Death Metal
Recorded date            : 2002
Encoded date            : UTC 2004-10-05 06:42:20
Tagged date            : UTC 2013-09-22 00:00:02
Writing application          : X Lossless Decoder 20121027, QuickTime 7.7.1
Cover              : Yes
Comment            : ExactAudioCopy v0.99pb4
iTunes_CDDB_1            : 8909DA0C+177674+11+150+16004+28472+47070+56597+80882+95176+105939+121144+150017+162315
iTunes_CDDB_TrackNumber        : 3

Audio
ID                : 1
Format              : ALAC
Codec ID              : alac
Codec ID/Info            : Apple Lossless Audio Codec
Duration              : 4mn 7s
Duration_LastFrame        : -16ms
Bit rate mode            : Variable
Bit rate              : 1 145 Kbps
Channel(s)            : 2 channels
Sampling rate            : 44.1 KHz
Bit depth              : 16 bits
Stream size            : 33.8 MiB (100%)
Language            : English
Encoded date            : UTC 2004-10-05 06:42:20
Tagged date            : UTC 2013-09-22 00:00:02

General
Complete name          : /Users/kozlice/Music/iTunes/iTunes Media/Music/Ablaze My Sorrow/Anger, Hate and Fury/04 Machine Supreme.m4a
Format              : MPEG-4
Format profile            : Apple audio with iTunes info
Codec ID              : M4A
File size              : 17.2 MiB
Duration              : 2mn 7s
Overall bit rate mode        : Variable
Overall bit rate          : 1 135 Kbps
Album              : Anger, Hate and Fury
Album/Performer          : Ablaze My Sorrow
Track name            : Machine Supreme
Track name/Position        : 4
Track name/Total          : 11
Performer            : Ablaze My Sorrow
Genre              : Melodic Death Metal
Recorded date            : 2002
Encoded date            : UTC 2003-03-02 17:41:32
Tagged date            : UTC 2013-09-22 00:00:03
Writing application          : X Lossless Decoder 20121027, QuickTime 7.7.1
Cover              : Yes
Comment            : ExactAudioCopy v0.99pb4
iTunes_CDDB_1            : 8909DA0C+177674+11+150+16004+28472+47070+56597+80882+95176+105939+121144+150017+162315
iTunes_CDDB_TrackNumber        : 4

Audio
ID                : 1
Format              : ALAC
Codec ID              : alac
Codec ID/Info            : Apple Lossless Audio Codec
Duration              : 2mn 7s
Duration_LastFrame        : -33ms
Bit rate mode            : Variable
Bit rate              : 1 128 Kbps
Channel(s)            : 2 channels
Sampling rate            : 44.1 KHz
Bit depth              : 16 bits
Stream size            : 17.1 MiB (99%)
Language            : English
Encoded date            : UTC 2003-03-02 17:41:32
Tagged date            : UTC 2013-09-22 00:00:03

General
Complete name          : /Users/kozlice/Music/iTunes/iTunes Media/Music/Ablaze My Sorrow/Anger, Hate and Fury/05 Paradies.m4a
Format              : MPEG-4
Format profile            : Apple audio with iTunes info
Codec ID              : M4A
File size              : 43.6 MiB
Duration              : 5mn 23s
Overall bit rate mode        : Variable
Overall bit rate          : 1 130 Kbps
Album              : Anger, Hate and Fury
Album/Performer          : Ablaze My Sorrow
Track name            : Paradies
Track name/Position        : 5
Track name/Total          : 11
Performer            : Ablaze My Sorrow
Genre              : Melodic Death Metal
Recorded date            : 2002
Encoded date            : UTC 2007-06-03 04:23:40
Tagged date            : UTC 2013-09-22 00:00:04
Writing application          : X Lossless Decoder 20121027, QuickTime 7.7.1
Cover              : Yes
Comment            : ExactAudioCopy v0.99pb4
iTunes_CDDB_1            : 8909DA0C+177674+11+150+16004+28472+47070+56597+80882+95176+105939+121144+150017+162315
iTunes_CDDB_TrackNumber        : 5

Audio
ID                : 1
Format              : ALAC
Codec ID              : alac
Codec ID/Info            : Apple Lossless Audio Codec
Duration              : 5mn 23s
Duration_LastFrame        : -72ms
Bit rate mode            : Variable
Bit rate              : 1 127 Kbps
Channel(s)            : 2 channels
Sampling rate            : 44.1 KHz
Bit depth              : 16 bits
Stream size            : 43.5 MiB (100%)
Language            : English
Encoded date            : UTC 2007-06-03 04:23:40
Tagged date            : UTC 2013-09-22 00:00:04

General
Complete name          : /Users/kozlice/Music/iTunes/iTunes Media/Music/Ablaze My Sorrow/Anger, Hate and Fury/06 Retention of Illusion.m4a
Format              : MPEG-4
Format profile            : Apple audio with iTunes info
Codec ID              : M4A
File size              : 26.7 MiB
Duration              : 3mn 10s
Overall bit rate mode        : Variable
Overall bit rate          : 1 176 Kbps
Album              : Anger, Hate and Fury
Album/Performer          : Ablaze My Sorrow
Track name            : Retention of Illusion
Track name/Position        : 6
Track name/Total          : 11
Performer            : Ablaze My Sorrow
Genre              : Melodic Death Metal
Recorded date            : 2002
Encoded date            : UTC 2005-10-28 15:22:52
Tagged date            : UTC 2013-09-22 00:00:06
Writing application          : X Lossless Decoder 20121027, QuickTime 7.7.1
Cover              : Yes
Comment            : ExactAudioCopy v0.99pb4
iTunes_CDDB_1            : 8909DA0C+177674+11+150+16004+28472+47070+56597+80882+95176+105939+121144+150017+162315
iTunes_CDDB_TrackNumber        : 6

Audio
ID                : 1
Format              : ALAC
Codec ID              : alac
Codec ID/Info            : Apple Lossless Audio Codec
Duration              : 3mn 10s
Duration_LastFrame        : -3ms
Bit rate mode            : Variable
Bit rate              : 1 172 Kbps
Channel(s)            : 2 channels
Sampling rate            : 44.1 KHz
Bit depth              : 16 bits
Stream size            : 26.6 MiB (100%)
Language            : English
Encoded date            : UTC 2005-10-28 15:22:52
Tagged date            : UTC 2013-09-22 00:00:06

General
Complete name          : /Users/kozlice/Music/iTunes/iTunes Media/Music/Ablaze My Sorrow/Anger, Hate and Fury/07 Thou Shalt Forever Suffer.m4a
Format              : MPEG-4
Format profile            : Apple audio with iTunes info
Codec ID              : M4A
File size              : 16.0 MiB
Duration              : 2mn 23s
Overall bit rate mode        : Variable
Overall bit rate          : 933 Kbps
Album              : Anger, Hate and Fury
Album/Performer          : Ablaze My Sorrow
Track name            : Thou Shalt Forever Suffer
Track name/Position        : 7
Track name/Total          : 11
Performer            : Ablaze My Sorrow
Genre              : Melodic Death Metal
Recorded date            : 2002
Encoded date            : UTC 2005-10-28 15:22:52
Tagged date            : UTC 2013-09-22 00:00:06
Writing application          : X Lossless Decoder 20121027, QuickTime 7.7.1
Cover              : Yes
Comment            : ExactAudioCopy v0.99pb4
iTunes_CDDB_1            : 8909DA0C+177674+11+150+16004+28472+47070+56597+80882+95176+105939+121144+150017+162315
iTunes_CDDB_TrackNumber        : 7

Audio
ID                : 1
Format              : ALAC
Codec ID              : alac
Codec ID/Info            : Apple Lossless Audio Codec
Duration              : 2mn 23s
Duration_LastFrame        : -86ms
Bit rate mode            : Variable
Bit rate              : 926 Kbps
Channel(s)            : 2 channels
Sampling rate            : 44.1 KHz
Bit depth              : 16 bits
Stream size            : 15.9 MiB (99%)
Language            : English
Encoded date            : UTC 2005-10-28 15:22:52
Tagged date            : UTC 2013-09-22 00:00:06

General
Complete name          : /Users/kozlice/Music/iTunes/iTunes Media/Music/Ablaze My Sorrow/Anger, Hate and Fury/08 Shrouded are the Pleasures of Flesh.m4a
Format              : MPEG-4
Format profile            : Apple audio with iTunes info
Codec ID              : M4A
File size              : 27.6 MiB
Duration              : 3mn 22s
Overall bit rate mode        : Variable
Overall bit rate          : 1 141 Kbps
Album              : Anger, Hate and Fury
Album/Performer          : Ablaze My Sorrow
Track name            : Shrouded are the Pleasures of Flesh
Track name/Position        : 8
Track name/Total          : 11
Performer            : Ablaze My Sorrow
Genre              : Melodic Death Metal
Recorded date            : 2002
Encoded date            : UTC 2006-11-21 00:03:24
Tagged date            : UTC 2013-09-22 00:00:07
Writing application          : X Lossless Decoder 20121027, QuickTime 7.7.1
Cover              : Yes
Comment            : ExactAudioCopy v0.99pb4
iTunes_CDDB_1            : 8909DA0C+177674+11+150+16004+28472+47070+56597+80882+95176+105939+121144+150017+162315
iTunes_CDDB_TrackNumber        : 8

Audio
ID                : 1
Format              : ALAC
Codec ID              : alac
Codec ID/Info            : Apple Lossless Audio Codec
Duration              : 3mn 22s
Duration_LastFrame        : -23ms
Bit rate mode            : Variable
Bit rate              : 1 137 Kbps
Channel(s)            : 2 channels
Sampling rate            : 44.1 KHz
Bit depth              : 16 bits
Stream size            : 27.5 MiB (100%)
Language            : English
Encoded date            : UTC 2006-11-21 00:03:24
Tagged date            : UTC 2013-09-22 00:00:07

General
Complete name          : /Users/kozlice/Music/iTunes/iTunes Media/Music/Ablaze My Sorrow/Anger, Hate and Fury/09 Heartless.m4a
Format              : MPEG-4
Format profile            : Apple audio with iTunes info
Codec ID              : M4A
File size              : 52.7 MiB
Duration              : 6mn 24s
Overall bit rate mode        : Variable
Overall bit rate          : 1 147 Kbps
Album              : Anger, Hate and Fury
Album/Performer          : Ablaze My Sorrow
Track name            : Heartless
Track name/Position        : 9
Track name/Total          : 11
Performer            : Ablaze My Sorrow
Genre              : Melodic Death Metal
Recorded date            : 2002
Encoded date            : UTC 2009-07-18 21:44:44
Tagged date            : UTC 2013-09-22 00:00:08
Writing application          : X Lossless Decoder 20121027, QuickTime 7.7.1
Cover              : Yes
Comment            : ExactAudioCopy v0.99pb4
iTunes_CDDB_1            : 8909DA0C+177674+11+150+16004+28472+47070+56597+80882+95176+105939+121144+150017+162315
iTunes_CDDB_TrackNumber        : 9

Audio
ID                : 1
Format              : ALAC
Codec ID              : alac
Codec ID/Info            : Apple Lossless Audio Codec
Duration              : 6mn 24s
Duration_LastFrame        : -14ms
Bit rate mode            : Variable
Bit rate              : 1 145 Kbps
Channel(s)            : 2 channels
Sampling rate            : 44.1 KHz
Bit depth              : 16 bits
Stream size            : 52.5 MiB (100%)
Language            : English
Encoded date            : UTC 2009-07-18 21:44:44
Tagged date            : UTC 2013-09-22 00:00:08

General
Complete name          : /Users/kozlice/Music/iTunes/iTunes Media/Music/Ablaze My Sorrow/Anger, Hate and Fury/10 Slit Wide Open.m4a
Format              : MPEG-4
Format profile            : Apple audio with iTunes info
Codec ID              : M4A
File size              : 23.0 MiB
Duration              : 2mn 43s
Overall bit rate mode        : Variable
Overall bit rate          : 1 176 Kbps
Album              : Anger, Hate and Fury
Album/Performer          : Ablaze My Sorrow
Track name            : Slit Wide Open
Track name/Position        : 10
Track name/Total          : 11
Performer            : Ablaze My Sorrow
Genre              : Melodic Death Metal
Recorded date            : 2002
Encoded date            : UTC 2007-06-03 04:23:40
Tagged date            : UTC 2013-09-22 00:00:10
Writing application          : X Lossless Decoder 20121027, QuickTime 7.7.1
Cover              : Yes
Comment            : ExactAudioCopy v0.99pb4
iTunes_CDDB_1            : 8909DA0C+177674+11+150+16004+28472+47070+56597+80882+95176+105939+121144+150017+162315
iTunes_CDDB_TrackNumber        : 10

Audio
ID                : 1
Format              : ALAC
Codec ID              : alac
Codec ID/Info            : Apple Lossless Audio Codec
Duration              : 2mn 43s
Duration_LastFrame        : -52ms
Bit rate mode            : Variable
Bit rate              : 1 171 Kbps
Channel(s)            : 2 channels
Sampling rate            : 44.1 KHz
Bit depth              : 16 bits
Stream size            : 22.9 MiB (100%)
Language            : English
Encoded date            : UTC 2007-06-03 04:23:40
Tagged date            : UTC 2013-09-22 00:00:10

General
Complete name          : /Users/kozlice/Music/iTunes/iTunes Media/Music/Ablaze My Sorrow/Anger, Hate and Fury/11 Ad Libitum.m4a
Format              : MPEG-4
Format profile            : Apple audio with iTunes info
Codec ID              : M4A
File size              : 27.8 MiB
Duration              : 3mn 24s
Overall bit rate mode        : Variable
Overall bit rate          : 1 140 Kbps
Album              : Anger, Hate and Fury
Album/Performer          : Ablaze My Sorrow
Track name            : Ad Libitum
Track name/Position        : 11
Track name/Total          : 11
Performer            : Ablaze My Sorrow
Genre              : Melodic Death Metal
Recorded date            : 2002
Encoded date            : UTC 2009-07-18 21:44:44
Tagged date            : UTC 2013-09-22 00:00:11
Writing application          : X Lossless Decoder 20121027, QuickTime 7.7.1
Cover              : Yes
Comment            : ExactAudioCopy v0.99pb4
iTunes_CDDB_1            : 8909DA0C+177674+11+150+16004+28472+47070+56597+80882+95176+105939+121144+150017+162315
iTunes_CDDB_TrackNumber        : 11

Audio
ID                : 1
Format              : ALAC
Codec ID              : alac
Codec ID/Info            : Apple Lossless Audio Codec
Duration              : 3mn 24s
Duration_LastFrame        : -13ms
Bit rate mode            : Variable
Bit rate              : 1 136 Kbps
Channel(s)            : 2 channels
Sampling rate            : 44.1 KHz
Bit depth              : 16 bits
Stream size            : 27.7 MiB (100%)
Language            : English
Encoded date            : UTC 2009-07-18 21:44:44


Время раздачи: 24/7
[NNM-Club.me]_Ablaze My Sorrow - Anger, Hate and Fury.torrent
 Торрент: Платиновая раздача  Зарегистрирован
 
Скачать


Примагнититься
 Зарегистрирован:   21 Сен 2013 23:47:12
 Размер:   321 MB  (
 Рейтинг:   4.5 (Голосов: 11)
 Поблагодарили:   18
 Проверка:   Оформление проверено модератором 22 Сен 2013 21:49:10
Как cкачать  ·  Как раздать  ·  Правильно оформить  ·  Поднять ратио!  
Показать сообщения:   
Начать новую тему   Ответить на тему    Торрент-трекер NNM-Club -> Аудио и Видео -> Музыка Lossless (ALAC) Часовой пояс: GMT + 3
Страница 1 из 1