Классический форум-трекер
canvas not supported
Нас вместе: 4 232 300

Ученик мастера / Тай-цзи 0 / Tai Chi 0 / Tai Chi Zero (2012) BDRip [H.264]


 
 
RSS
Начать новую тему   Ответить на тему    Торрент-трекер NNM-Club -> Зарубежное кино -> Азиатское кино (SD)
Автор Сообщение
art-61 ®
Стаж: 12 лет 10 мес.
Сообщений: 1094
Ratio: 119.581
Поблагодарили: 143431
100%
Откуда: Санкт-Петербург
russia.gif
Ученик мастера / Тай-цзи 0 / Tai Chi 0 / Tai Chi Zero (2012) BDRip [H.264]
«Рождение легенды»
Год выпуска: 2012
Производство: Китай / Diversion Pictures, Huayi Brothers & Taihe Film Investment
Жанр: боевик, драма

Описание фильма:
Необыкновенно одарённого ребёнка Яна все считают местным дурачком, но он не обращает на это внимание. Ян отправляется в затерянную в горах деревню мастеров кунг-фу, чтобы изучить тайны этой борьбы. Но, он недостоин обучаться великому искусству — в первом же бою он проиграл девушке. Только местный нищий старик сочувствует ему и берется научить его. Эти навыки ему пригодятся в борьбе с злодеями, чтобы вернуть доверие жителей деревни и завоевать сердце красавицы Юнь. Ведь нищий старик, на самом деле, великий мастер кунгфу и отец Юнь. Битва начинается...

Режиссер: Стивен Фанг
Актеры: Стивен Фанг, Юань Сяочао, Тони Люн Ка Фай, Эдди Пэн, Шу Ци, Дэниэл Ву, Стэнли Фунг, Пьер Бурдо, Пол Филип Кларк, Кеони Эверингтон, Анджела Бейби

Продолжительность: 01:59:16
Качество видео: BDRip
Перевод: Дублированный (НТВ+)



Дата мировой премьеры: 31 августа 2012 (Италия)
Дата российской премьеры: 29 августа 2013, «Арена»
Дата выхода DVD релиза: 1 октября 2013, «CD Land»

Видео: MPEG-4 AVC/H.264, 1024x436 (2.35:1), 23.976 fps, ~3500 Kb/s (0.327 bit/pixel)
Аудио#1: AC-3, 48.0 KHz, 5.1 ch, 384 Kb/s, CBR | Russian
Аудио#2: AC-3, 48.0 KHz, 5.1 ch, 448 Kb/s, CBR | Chinese
Код: выделить все
Общее
Полное имя                               : Ychenik.mastera.2012.x264.BDRip(AVC).mkv
Формат                                   : Matroska
Версия формата                           : Version 4 / Version 2
Размер файла                             : 2,97 Гбайт
Продолжительность                        : 1 ч. 38 м.
Общий поток                              : 4331 Кбит/сек
Название фильма
Дата кодирования                         : UTC 2013-09-29 14:18:19
Программа кодирования                    : mkvmerge v6.1.0 ('Old Devil') built on Mar  2 2013 14:32:37
Библиотека кодирования                   : libebml v1.3.0 + libmatroska v1.4.0

Видео
Идентификатор                            : 1
Формат                                   : AVC
Формат/Информация                        : Advanced Video Codec
Профиль формата                          : High@L4.1
Параметр CABAC формата                   : Да
Параметр ReFrames формата                : 9 кадров
Идентификатор кодека                     : V_MPEG4/ISO/AVC
Продолжительность                        : 1 ч. 38 м.
Битрейт                                  : 3500 Кбит/сек
Ширина                                   : 1024 пикселя
Высота                                   : 436 пикселей
Соотношение сторон                       : 2,35:1
Режим частоты кадров                     : Постоянный
Частота кадров                           : 23,976 кадра/сек
Цветовое пространство                    : YUV
Субдискретизация насыщенности            : 4:2:0
Битовая глубина                          : 8 бит
Тип развёртки                            : Прогрессивная
Бит/(Пиксели*Кадры)                      : 0.327
Размер потока                            : 2,34 Гбайт (79%)
Библиотека кодирования                   : x264 core 125 r2208 d9d2288
Настройки программы                      : cabac=1 / ref=9 / deblock=1:-2:-2 / analyse=0x3:0x133 / me=umh / subme=11 / psy=1 / psy_rd=1.00:0.10 / mixed_ref=1 / me_range=32 / chroma_me=1 / trellis=2 / 8x8dct=1 / cqm=0 / deadzone=21,11 / fast_pskip=0 / chroma_qp_offset=-3 / threads=6 / lookahead_threads=1 / sliced_threads=0 / nr=0 / decimate=0 / interlaced=0 / bluray_compat=0 / constrained_intra=0 / bframes=8 / b_pyramid=2 / b_adapt=2 / b_bias=0 / direct=3 / weightb=1 / open_gop=0 / weightp=2 / keyint=240 / keyint_min=23 / scenecut=40 / intra_refresh=0 / rc=2pass / mbtree=0 / bitrate=3500 / ratetol=1.0 / qcomp=0.60 / qpmin=0 / qpmax=69 / qpstep=4 / cplxblur=20.0 / qblur=0.5 / ip_ratio=1.40 / pb_ratio=1.30 / aq=1:0.80
Язык                                     : Chinese
Default                                  : Да
Forced                                   : Нет

Аудио #1
Идентификатор                            : 2
Формат                                   : AC-3
Формат/Информация                        : Audio Coding 3
Расширение режима                        : CM (complete main)
Параметр Endianness формата              : Big
Идентификатор кодека                     : A_AC3
Продолжительность                        : 1 ч. 38 м.
Вид битрейта                             : Постоянный
Битрейт                                  : 384 Кбит/сек
Каналы                                   : 6 каналов
Расположение каналов                     : Front: L C R, Side: L R, LFE
Частота                                  : 48,0 КГц
Битовая глубина                          : 16 бит
Метод сжатия                             : С потерями
Размер потока                            : 270 Мбайт (9%)
Язык                                     : Russian
Default                                  : Нет
Forced                                   : Нет

Аудио #2
Идентификатор                            : 3
Формат                                   : AC-3
Формат/Информация                        : Audio Coding 3
Расширение режима                        : CM (complete main)
Параметр Endianness формата              : Big
Идентификатор кодека                     : A_AC3
Продолжительность                        : 1 ч. 38 м.
Вид битрейта                             : Постоянный
Битрейт                                  : 448 Кбит/сек
Каналы                                   : 6 каналов
Расположение каналов                     : Front: L C R, Side: L R, LFE
Частота                                  : 48,0 КГц
Битовая глубина                          : 16 бит
Метод сжатия                             : С потерями
Размер потока                            : 314 Мбайт (10%)
Язык                                     : Chinese
Default                                  : Нет
Forced                                   : Нет
Скриншоты:


Реставрация от: Viсtоr
[NNM-Club.me]_Ychenik.mastera.2012.x264.BDRip(AVC).mkv.torrent
 Торрент: Платиновая раздача  Зарегистрирован
 
Скачать


Примагнититься
 Зарегистрирован:   29 Сен 2013 18:54:01
 Размер:   2.97 GB  (
 Рейтинг:   4.6 (Голосов: 54)
 Поблагодарили:   182
 Проверка:   Оформление проверено модератором 29 Сен 2013 23:10:32
Как cкачать  ·  Как раздать  ·  Правильно оформить  ·  Поднять ратио!  
Demic
Стаж: 14 лет 1 мес.
Сообщений: 508
Ratio: 4.455
100%
Откуда: Санкт-Петербург
russia.gif
Подождём вторую часть ! :)

_________________
Win7-64, i7-3.4
Asus GTX 1060 Strix OC, 8гб память
Intruden
Стаж: 14 лет
Сообщений: 74
Ratio: 17.679
100%
russia.gif
Ученик учителя :-)
trogwar82
Стаж: 11 лет 10 мес.
Сообщений: 97
Ratio: 446.974
Раздал: 38.75 TB
Поблагодарили: 5693
100%
russia.gif
Demic писал(а): Перейти к сообщению
Подождём вторую часть ! :)

уже есть вторая :) и здесь тоже

Фильм отличный - буду пересматривать :)
dvvan
Стаж: 14 лет 2 мес.
Сообщений: 123
Ratio: 9.215
Раздал: 7.716 TB
Поблагодарили: 220
57.68%
Откуда: Tel-Aviv
israel.gif
Честно говоря жутко наиграно, есть конечно положительные моменты объяснений ударов и движений это инновация а в основном дохлая тройка. Это лично моё мнение(сужу по просмотренным азиатским фильмам).

_________________
Показать сообщения:   
Начать новую тему   Ответить на тему    Торрент-трекер NNM-Club -> Зарубежное кино -> Азиатское кино (SD) Часовой пояс: GMT + 3
Страница 1 из 1