Классический форум-трекер
canvas not supported
Нас вместе: 4 206 152

Гарольд и Кумар уходят в отрыв / Harold & Kumar Go to White Castle (2004) BDRip [720p]


 
 
RSS
Начать новую тему   Ответить на тему    Торрент-трекер NNM-Club -> Зарубежное кино -> Зарубежные Фильмы (HD, FHD)
Автор Сообщение
Long__Boy ®
Стаж: 9 лет 11 мес.
Сообщений: 838
Ratio: 91.4
Поблагодарили: 137041
100%
Гарольд и Кумар уходят в отрыв / Harold & Kumar Go to White Castle (2004) BDRip

Год выпуска: 1993
Производство: США, Канада, Германия / Endgame Entertainment, Harold & Kumar, Kingsgate Films
Жанр: комедия, приключения
Перевод: Профессиональный (полное дублирование) / Профессиональный (многоголосый) / Профессиональный (одноголосый)
Субтитры: Русский, Английский
Дата мировой премьеры: 20 мая 2004
Дата российской премьеры: 23 сентября 2004, «West»
Дата выхода DVD/Blu Ray: 17 января 2005, «West Video»
Режиссер: Дэнни Лейнер
Актеры: Джон Чо, Кэл Пенн, Нил Патрик Харрис, Дэвид Крамхолц, Эдди Кэй Томас, Паула Гарсес, Кристофер Мелони, Малин Акерман, Брук Д’Орсей, Энтони Андерсон
Описание фильма: То, что Гарольд и Кумар разные, видно сразу, но при этом они как-то уживаются в одной квартире! И вот однажды, выкурив по сигаретке и забыв невзгоды, друзья решают оттянуться гамбургерами…
Свою поездку они запомнили навсегда! Взяв старт, приятели окунаются в такой круговорот событий, что не успевают осознать происходящее! Ночная чехарда не оставляет им времени на выбор. Они оторвались по полной! Хоть и не все смогли понять… Например: откуда в их местах столько диких зверей? А может, им это просто показалось?

Продолжительность: 01:28:23
Качество видео: BDRip [720p]
Видеокодек: MPEG-4 AVC/H.264
Битрейт видео: ~5444 Kbps
Размер кадра: 1280х692
Аудио#1: [Русский]: AC3 5.1; 640.00 kbps; 48 kHz; 16 bit |Лицензия|
Аудио#2: [Русский]: AC3 5.1; 384.00 kbps; 48 kHz; 16 bit |Киномания|
Аудио#3: [Русский]: AC3 5.1; 384.00 kbps; 48 kHz; 16 bit |А.Карповский|
Аудио#4: [Украинский]: AC3 5.1; 640.00 kbps; 48 kHz; 16 bit |Новый Канал|
Аудио#5: [Украинский]: AC3 5.1; 384.00 kbps; 48 kHz; 16 bit |1+1|
Аудио#6: [Английский]: DTS 5.1; 1510.00 kbps; 48 kHz; 24 bit |Оригинал|
Код: выделить все
General
Unique ID                                : 239858097000446880406144186068726404195 (0xB472FD3863C92E34A9E324C4AC975463)
Complete name                            : E:\ЗАГРУЗКИ\Harold.&.Kumar [2004] 720p.BDRip.mkv
Format                                   : Matroska
Format version                           : Version 2
File size                                : 5.79 GiB
Duration                                 : 1h 28mn
Overall bit rate                         : 9 385 Kbps
Movie name                               : RWA
Encoded date                             : UTC 2013-10-13 14:43:56
Writing application                      : mkvmerge v5.5.0 ('Healer') built on Apr  6 2012 21:43:24
Writing library                          : libebml v1.2.3 + libmatroska v1.3.0
Attachment                               : Yes

Video
ID                                       : 1
Format                                   : AVC
Format/Info                              : Advanced Video Codec
Format profile                           : High@L5.1
Format settings, CABAC                   : Yes
Format settings, ReFrames                : 16 frames
Muxing mode                              : Header stripping
Codec ID                                 : V_MPEG4/ISO/AVC
Duration                                 : 1h 28mn
Bit rate                                 : 5 444 Kbps
Width                                    : 1 280 pixels
Height                                   : 692 pixels
Display aspect ratio                     : 1.85:1
Frame rate mode                          : Constant
Frame rate                               : 23.976 fps
Color space                              : YUV
Chroma subsampling                       : 4:2:0
Bit depth                                : 8 bits
Scan type                                : Progressive
Bits/(Pixel*Frame)                       : 0.256
Stream size                              : 3.25 GiB (56%)
Title                                    : Гарольд и Кумар [2004]
Writing library                          : x264 core 60 r877M c74a8e2
Encoding settings                        : cabac=1 / ref=16 / deblock=1:-3:-3 / analyse=0x3:0x133 / me=umh / subme=7 / me-prepass=0 / brdo=1 / mixed_ref=1 / me_range=45 / chroma_me=1 / trellis=0 / 8x8dct=1 / cqm=2 / deadzone=8,8 / chroma_qp_offset=0 / threads=6 / nr=0 / decimate=1 / mbaff=0 / fgo=9 / bframes=16 / b_pyramid=1 / b_adapt=1 / b_bias=0 / direct=3 / wpredb=1 / bime=1 / keyint=250 / keyint_min=25 / scenecut=40(pre) / rc=2pass / bitrate=5444 / ratetol=1.0 / rceq='blurCplx^(1-qComp)' / qcomp=1.00 / qpmin=10 / qpmax=51 / qpstep=4 / cplxblur=20.0 / qblur=0.5 / ip_ratio=1.40 / pb_ratio=1.16 / aq=2:0.80
Language                                 : English
Default                                  : Yes
Forced                                   : No

Audio #1
ID                                       : 2
Format                                   : AC-3
Format/Info                              : Audio Coding 3
Mode extension                           : CM (complete main)
Format settings, Endianness              : Big
Muxing mode                              : Header stripping
Codec ID                                 : A_AC3
Duration                                 : 1h 28mn
Bit rate mode                            : Constant
Bit rate                                 : 640 Kbps
Channel(s)                               : 6 channels
Channel positions                        : Front: L C R, Side: L R, LFE
Sampling rate                            : 48.0 KHz
Bit depth                                : 16 bits
Compression mode                         : Lossy
Stream size                              : 405 MiB (7%)
Title                                    : Лицензия - Дубляж
Language                                 : Russian
Default                                  : Yes
Forced                                   : Yes

Audio #2
ID                                       : 3
Format                                   : AC-3
Format/Info                              : Audio Coding 3
Mode extension                           : CM (complete main)
Format settings, Endianness              : Big
Muxing mode                              : Header stripping
Codec ID                                 : A_AC3
Duration                                 : 1h 28mn
Bit rate mode                            : Constant
Bit rate                                 : 384 Kbps
Channel(s)                               : 6 channels
Channel positions                        : Front: L C R, Side: L R, LFE
Sampling rate                            : 48.0 KHz
Bit depth                                : 16 bits
Compression mode                         : Lossy
Stream size                              : 243 MiB (4%)
Title                                    : Киномания - Многоголосый
Language                                 : Russian
Default                                  : No
Forced                                   : No

Audio #3
ID                                       : 4
Format                                   : AC-3
Format/Info                              : Audio Coding 3
Mode extension                           : CM (complete main)
Format settings, Endianness              : Big
Muxing mode                              : Header stripping
Codec ID                                 : A_AC3
Duration                                 : 1h 28mn
Bit rate mode                            : Constant
Bit rate                                 : 384 Kbps
Channel(s)                               : 6 channels
Channel positions                        : Front: L C R, Side: L R, LFE
Sampling rate                            : 48.0 KHz
Bit depth                                : 16 bits
Compression mode                         : Lossy
Stream size                              : 243 MiB (4%)
Title                                    : Карповский - Одноголосый
Language                                 : Russian
Default                                  : No
Forced                                   : No

Audio #4
ID                                       : 5
Format                                   : AC-3
Format/Info                              : Audio Coding 3
Mode extension                           : CM (complete main)
Format settings, Endianness              : Big
Muxing mode                              : Header stripping
Codec ID                                 : A_AC3
Duration                                 : 1h 28mn
Bit rate mode                            : Constant
Bit rate                                 : 640 Kbps
Channel(s)                               : 6 channels
Channel positions                        : Front: L C R, Side: L R, LFE
Sampling rate                            : 48.0 KHz
Bit depth                                : 16 bits
Compression mode                         : Lossy
Stream size                              : 405 MiB (7%)
Title                                    : Новый канал - Многоголосый
Language                                 : Ukrainian
Default                                  : No
Forced                                   : No

Audio #5
ID                                       : 6
Format                                   : AC-3
Format/Info                              : Audio Coding 3
Mode extension                           : CM (complete main)
Format settings, Endianness              : Big
Muxing mode                              : Header stripping
Codec ID                                 : A_AC3
Duration                                 : 1h 28mn
Bit rate mode                            : Constant
Bit rate                                 : 384 Kbps
Channel(s)                               : 6 channels
Channel positions                        : Front: L C R, Side: L R, LFE
Sampling rate                            : 48.0 KHz
Bit depth                                : 16 bits
Compression mode                         : Lossy
Stream size                              : 243 MiB (4%)
Title                                    : 1+1 - Многоголосый
Language                                 : Ukrainian
Default                                  : No
Forced                                   : No

Audio #6
ID                                       : 7
Format                                   : DTS
Format/Info                              : Digital Theater Systems
Format profile                           : ES
Muxing mode                              : Header stripping
Codec ID                                 : A_DTS
Duration                                 : 1h 28mn
Bit rate mode                            : Constant
Bit rate                                 : 1 510 Kbps
Channel(s)                               : 6 channels
Channel positions                        : Front: L C R, Side: L R, LFE
Sampling rate                            : 48.0 KHz
Bit depth                                : 24 bits
Compression mode                         : Lossy
Stream size                              : 954 MiB (16%)
Title                                    : Оригинал
Language                                 : English
Default                                  : No
Forced                                   : No

Text #1
ID                                       : 8
Format                                   : UTF-8
Codec ID                                 : S_TEXT/UTF8
Codec ID/Info                            : UTF-8 Plain Text
Title                                    : Forced
Language                                 : Russian
Default                                  : Yes
Forced                                   : No

Text #2
ID                                       : 9
Format                                   : UTF-8
Codec ID                                 : S_TEXT/UTF8
Codec ID/Info                            : UTF-8 Plain Text
Title                                    : Full
Language                                 : Russian
Default                                  : No
Forced                                   : No

Text #3
ID                                       : 10
Format                                   : ASS
Codec ID                                 : S_TEXT/ASS
Codec ID/Info                            : Advanced Sub Station Alpha
Compression mode                         : Lossless
Title                                    : Full
Language                                 : English
Default                                  : No
Forced                                   : No
Скриншоты:


Время раздачи: 24/7 до 3х скачавших, дальше по мере возможности...
Постер и оформление Long__Boy®


[NNM-Club.me]_Harold.&.Kumar [2004] 720p.BDRip.mkv.torrent
 Торрент: Платиновая раздача  Зарегистрирован
 
Скачать


Примагнититься
 Зарегистрирован:   13 Окт 2013 18:11:22
 Размер:   5.79 GB  (
 Рейтинг:   4.9 (Голосов: 23)
 Поблагодарили:   80
 Проверка:   Оформление проверено модератором 14 Окт 2013 10:43:43
Как cкачать  ·  Как раздать  ·  Правильно оформить  ·  Поднять ратио!  

_________________
Блюз - это состояние души, для которого не нужно дорогой гитары - подойдет та, что есть под рукой...
Fogel88
Стаж: 9 лет 7 мес.
Сообщений: 3
Ratio: 56.044
0%
Откуда: Новосибирск
russia.gif
ой
bohdandfr
Стаж: 7 лет 3 мес.
Сообщений: 8
Ratio: 4.805
0%
ukraine.gif
никто не раздает... как жаль
Показать сообщения:   
Начать новую тему   Ответить на тему    Торрент-трекер NNM-Club -> Зарубежное кино -> Зарубежные Фильмы (HD, FHD) Часовой пояс: GMT + 3
Страница 1 из 1