Классический форум-трекер
canvas not supported
Нас вместе: 4 234 004

Eagles - The Studio Albums (2013) [FLAC 2.0 192/24 |tracks (WEB-DL)]<Rock, Folk, Country>


 
 
RSS
Начать новую тему   Ответить на тему    Торрент-трекер NNM-Club -> Архив торрентов -> Архив Музыки
Автор Сообщение
eric_s ®
Стаж: 16 лет 2 мес.
Сообщений: 1018
Ratio: 8.963
Поблагодарили: 20618
100%
Eagles - The Studio Albums (2013)
Жанр: Rock, Folk, Country
Год выпуска: 2013
Год: 1972-1979
Издатель (лейбл): Rhino/Elektra
Источник: HDtracks
Кодек: FLAC 2.0 192/24
Продолжительность: 04:01:36

Albums:
1 Take It Easy 3:31
2 Witchy Woman 4:10
3 Chug All Night 3:15
4 Most Of Us Are Sad 3:35
5 Nightingale 4:05
6 Train Leaves Here This Morning 4:10
7 Take The Devil 4:00
8 Earlybird 2:59
9 Peaceful Easy Feeling 4:17
10 Tryin' 2:55
General
Complete name : D:\Eric\music\Eagles - The Studio Albums 1972-1979 HDtracks 192\Disc 1 - Eagles 1972\01-Take It Easy.flac
Format : FLAC
Format/Info : Free Lossless Audio Codec
File size : 138 MiB
Duration : 3mn 31s
Overall bit rate mode : Variable
Overall bit rate : 5 461 Kbps
Album : Eagles
Album/Performer : Eagles
Part : 1
Track name : Take It Easy
Track name/Position : 01
Performer : Eagles
Genre : Pop
Recorded date : 2013
HDTRACKS : www.hdtracks.com

Audio
Format : FLAC
Format/Info : Free Lossless Audio Codec
Duration : 3mn 31s
Bit rate mode : Variable
Bit rate : 5 439 Kbps
Channel(s) : 2 channels
Sampling rate : 192 KHz
Bit depth : 24 bits
Stream size : 137 MiB (100%)
Writing library : libFLAC 1.2.1 (UTC 2007-09-17)

General
Complete name : D:\Eric\music\Eagles - The Studio Albums 1972-1979 HDtracks 192\Disc 1 - Eagles 1972\02-Witchy Woman.flac
Format : FLAC
Format/Info : Free Lossless Audio Codec
File size : 161 MiB
Duration : 4mn 10s
Overall bit rate mode : Variable
Overall bit rate : 5 367 Kbps
Album : Eagles
Album/Performer : Eagles
Part : 1
Track name : Witchy Woman
Track name/Position : 02
Performer : Eagles
Genre : Pop
Recorded date : 2013
HDTRACKS : www.hdtracks.com

Audio
Format : FLAC
Format/Info : Free Lossless Audio Codec
Duration : 4mn 10s
Bit rate mode : Variable
Bit rate : 5 349 Kbps
Channel(s) : 2 channels
Sampling rate : 192 KHz
Bit depth : 24 bits
Stream size : 160 MiB (100%)
Writing library : libFLAC 1.2.1 (UTC 2007-09-17)

General
Complete name : D:\Eric\music\Eagles - The Studio Albums 1972-1979 HDtracks 192\Disc 1 - Eagles 1972\03-Chug All Night.flac
Format : FLAC
Format/Info : Free Lossless Audio Codec
File size : 126 MiB
Duration : 3mn 15s
Overall bit rate mode : Variable
Overall bit rate : 5 415 Kbps
Album : Eagles
Album/Performer : Eagles
Part : 1
Track name : Chug All Night
Track name/Position : 03
Performer : Eagles
Genre : Pop
Recorded date : 2013
HDTRACKS : www.hdtracks.com

Audio
Format : FLAC
Format/Info : Free Lossless Audio Codec
Duration : 3mn 15s
Bit rate mode : Variable
Bit rate : 5 392 Kbps
Channel(s) : 2 channels
Sampling rate : 192 KHz
Bit depth : 24 bits
Stream size : 126 MiB (100%)
Writing library : libFLAC 1.2.1 (UTC 2007-09-17)

General
Complete name : D:\Eric\music\Eagles - The Studio Albums 1972-1979 HDtracks 192\Disc 1 - Eagles 1972\04-Most Of Us Are Sad.flac
Format : FLAC
Format/Info : Free Lossless Audio Codec
File size : 136 MiB
Duration : 3mn 35s
Overall bit rate mode : Variable
Overall bit rate : 5 313 Kbps
Album : Eagles
Album/Performer : Eagles
Part : 1
Track name : Most Of Us Are Sad
Track name/Position : 04
Performer : Eagles
Genre : Pop
Recorded date : 2013
HDTRACKS : www.hdtracks.com

Audio
Format : FLAC
Format/Info : Free Lossless Audio Codec
Duration : 3mn 35s
Bit rate mode : Variable
Bit rate : 5 292 Kbps
Channel(s) : 2 channels
Sampling rate : 192 KHz
Bit depth : 24 bits
Stream size : 136 MiB (100%)
Writing library : libFLAC 1.2.1 (UTC 2007-09-17)

General
Complete name : D:\Eric\music\Eagles - The Studio Albums 1972-1979 HDtracks 192\Disc 1 - Eagles 1972\05-Nightingale.flac
Format : FLAC
Format/Info : Free Lossless Audio Codec
File size : 158 MiB
Duration : 4mn 5s
Overall bit rate mode : Variable
Overall bit rate : 5 382 Kbps
Album : Eagles
Album/Performer : Eagles
Part : 1
Track name : Nightingale
Track name/Position : 05
Performer : Eagles
Genre : Pop
Recorded date : 2013
HDTRACKS : www.hdtracks.com

Audio
Format : FLAC
Format/Info : Free Lossless Audio Codec
Duration : 4mn 5s
Bit rate mode : Variable
Bit rate : 5 364 Kbps
Channel(s) : 2 channels
Sampling rate : 192 KHz
Bit depth : 24 bits
Stream size : 157 MiB (100%)
Writing library : libFLAC 1.2.1 (UTC 2007-09-17)

General
Complete name : D:\Eric\music\Eagles - The Studio Albums 1972-1979 HDtracks 192\Disc 1 - Eagles 1972\06-Train Leaves Here This Morning.flac
Format : FLAC
Format/Info : Free Lossless Audio Codec
File size : 157 MiB
Duration : 4mn 10s
Overall bit rate mode : Variable
Overall bit rate : 5 255 Kbps
Album : Eagles
Album/Performer : Eagles
Part : 1
Track name : Train Leaves Here This Morning
Track name/Position : 06
Performer : Eagles
Genre : Pop
Recorded date : 2013
HDTRACKS : www.hdtracks.com

Audio
Format : FLAC
Format/Info : Free Lossless Audio Codec
Duration : 4mn 10s
Bit rate mode : Variable
Bit rate : 5 237 Kbps
Channel(s) : 2 channels
Sampling rate : 192 KHz
Bit depth : 24 bits
Stream size : 156 MiB (100%)
Writing library : libFLAC 1.2.1 (UTC 2007-09-17)

General
Complete name : D:\Eric\music\Eagles - The Studio Albums 1972-1979 HDtracks 192\Disc 1 - Eagles 1972\07-Take The Devil.flac
Format : FLAC
Format/Info : Free Lossless Audio Codec
File size : 152 MiB
Duration : 4mn 0s
Overall bit rate mode : Variable
Overall bit rate : 5 293 Kbps
Album : Eagles
Album/Performer : Eagles
Part : 1
Track name : Take The Devil
Track name/Position : 07
Performer : Eagles
Genre : Pop
Recorded date : 2013
HDTRACKS : www.hdtracks.com

Audio
Format : FLAC
Format/Info : Free Lossless Audio Codec
Duration : 4mn 0s
Bit rate mode : Variable
Bit rate : 5 274 Kbps
Channel(s) : 2 channels
Sampling rate : 192 KHz
Bit depth : 24 bits
Stream size : 151 MiB (100%)
Writing library : libFLAC 1.2.1 (UTC 2007-09-17)

General
Complete name : D:\Eric\music\Eagles - The Studio Albums 1972-1979 HDtracks 192\Disc 1 - Eagles 1972\08-Earlybird.flac
Format : FLAC
Format/Info : Free Lossless Audio Codec
File size : 116 MiB
Duration : 2mn 59s
Overall bit rate mode : Variable
Overall bit rate : 5 403 Kbps
Album : Eagles
Album/Performer : Eagles
Part : 1
Track name : Earlybird
Track name/Position : 08
Performer : Eagles
Genre : Pop
Recorded date : 2013
HDTRACKS : www.hdtracks.com

Audio
Format : FLAC
Format/Info : Free Lossless Audio Codec
Duration : 2mn 59s
Bit rate mode : Variable
Bit rate : 5 377 Kbps
Channel(s) : 2 channels
Sampling rate : 192 KHz
Bit depth : 24 bits
Stream size : 115 MiB (100%)
Writing library : libFLAC 1.2.1 (UTC 2007-09-17)

General
Complete name : D:\Eric\music\Eagles - The Studio Albums 1972-1979 HDtracks 192\Disc 1 - Eagles 1972\09-Peaceful Easy Feeling.flac
Format : FLAC
Format/Info : Free Lossless Audio Codec
File size : 164 MiB
Duration : 4mn 17s
Overall bit rate mode : Variable
Overall bit rate : 5 339 Kbps
Album : Eagles
Album/Performer : Eagles
Part : 1
Track name : Peaceful Easy Feeling
Track name/Position : 09
Performer : Eagles
Genre : Pop
Recorded date : 2013
HDTRACKS : www.hdtracks.com

Audio
Format : FLAC
Format/Info : Free Lossless Audio Codec
Duration : 4mn 17s
Bit rate mode : Variable
Bit rate : 5 321 Kbps
Channel(s) : 2 channels
Sampling rate : 192 KHz
Bit depth : 24 bits
Stream size : 164 MiB (100%)
Writing library : libFLAC 1.2.1 (UTC 2007-09-17)

General
Complete name : D:\Eric\music\Eagles - The Studio Albums 1972-1979 HDtracks 192\Disc 1 - Eagles 1972\10-Tryin'.flac
Format : FLAC
Format/Info : Free Lossless Audio Codec
File size : 112 MiB
Duration : 2mn 53s
Overall bit rate mode : Variable
Overall bit rate : 5 438 Kbps
Album : Eagles
Album/Performer : Eagles
Part : 1
Track name : Tryin'
Track name/Position : 10
Performer : Eagles
Genre : Pop
Recorded date : 2013
HDTRACKS : www.hdtracks.com

Audio
Format : FLAC
Format/Info : Free Lossless Audio Codec
Duration : 2mn 53s
Bit rate mode : Variable
Bit rate : 5 412 Kbps
Channel(s) : 2 channels
Sampling rate : 192 KHz
Bit depth : 24 bits
Stream size : 112 MiB (100%)
Writing library : libFLAC 1.2.1 (UTC 2007-09-17)
1 Doolin-Dalton 3:27
2 Twenty-One 2:09
3 Out Of Control 3:04
4 Tequila Sunrise 2:53
5 Desperado 3:33
6 Certain Kind Of Fool 3:01
7 Doolin-Dalton (Instrumental Version) 0:47
8 Outlaw Man 3:33
9 Saturday Night 3:20
10 Bitter Creek 5:01
11 Doolin-Dalton/Desperado (Reprise) 4:51
General
Complete name : D:\Eric\music\Eagles - The Studio Albums 1972-1979 HDtracks 192\Disc 2 - Desperado 1973\01-Doolin-Dalton.flac
Format : FLAC
Format/Info : Free Lossless Audio Codec
File size : 128 MiB
Duration : 3mn 27s
Overall bit rate mode : Variable
Overall bit rate : 5 185 Kbps
Album : Desperado
Album/Performer : Eagles
Part : 2
Track name : Doolin-Dalton
Track name/Position : 01
Performer : Eagles
Genre : Pop
Recorded date : 2013
HDTRACKS : www.hdtracks.com

Audio
Format : FLAC
Format/Info : Free Lossless Audio Codec
Duration : 3mn 27s
Bit rate mode : Variable
Bit rate : 5 163 Kbps
Channel(s) : 2 channels
Sampling rate : 192 KHz
Bit depth : 24 bits
Stream size : 127 MiB (100%)
Writing library : libFLAC 1.2.1 (UTC 2007-09-17)

General
Complete name : D:\Eric\music\Eagles - The Studio Albums 1972-1979 HDtracks 192\Disc 2 - Desperado 1973\02-Twenty-One.flac
Format : FLAC
Format/Info : Free Lossless Audio Codec
File size : 83.1 MiB
Duration : 2mn 9s
Overall bit rate mode : Variable
Overall bit rate : 5 361 Kbps
Album : Desperado
Album/Performer : Eagles
Part : 2
Track name : Twenty-One
Track name/Position : 02
Performer : Eagles
Genre : Pop
Recorded date : 2013
HDTRACKS : www.hdtracks.com

Audio
Format : FLAC
Format/Info : Free Lossless Audio Codec
Duration : 2mn 9s
Bit rate mode : Variable
Bit rate : 5 326 Kbps
Channel(s) : 2 channels
Sampling rate : 192 KHz
Bit depth : 24 bits
Stream size : 82.5 MiB (99%)
Writing library : libFLAC 1.2.1 (UTC 2007-09-17)

General
Complete name : D:\Eric\music\Eagles - The Studio Albums 1972-1979 HDtracks 192\Disc 2 - Desperado 1973\03-Out Of Control.flac
Format : FLAC
Format/Info : Free Lossless Audio Codec
File size : 122 MiB
Duration : 3mn 4s
Overall bit rate mode : Variable
Overall bit rate : 5 548 Kbps
Album : Desperado
Album/Performer : Eagles
Part : 2
Track name : Out Of Control
Track name/Position : 03
Performer : Eagles
Genre : Pop
Recorded date : 2013
HDTRACKS : www.hdtracks.com

Audio
Format : FLAC
Format/Info : Free Lossless Audio Codec
Duration : 3mn 4s
Bit rate mode : Variable
Bit rate : 5 523 Kbps
Channel(s) : 2 channels
Sampling rate : 192 KHz
Bit depth : 24 bits
Stream size : 122 MiB (100%)
Writing library : libFLAC 1.2.1 (UTC 2007-09-17)

General
Complete name : D:\Eric\music\Eagles - The Studio Albums 1972-1979 HDtracks 192\Disc 2 - Desperado 1973\04-Tequila Sunrise.flac
Format : FLAC
Format/Info : Free Lossless Audio Codec
File size : 109 MiB
Duration : 2mn 53s
Overall bit rate mode : Variable
Overall bit rate : 5 267 Kbps
Album : Desperado
Album/Performer : Eagles
Part : 2
Track name : Tequila Sunrise
Track name/Position : 04
Performer : Eagles
Genre : Pop
Recorded date : 2013
HDTRACKS : www.hdtracks.com

Audio
Format : FLAC
Format/Info : Free Lossless Audio Codec
Duration : 2mn 53s
Bit rate mode : Variable
Bit rate : 5 240 Kbps
Channel(s) : 2 channels
Sampling rate : 192 KHz
Bit depth : 24 bits
Stream size : 108 MiB (100%)
Writing library : libFLAC 1.2.1 (UTC 2007-09-17)

General
Complete name : D:\Eric\music\Eagles - The Studio Albums 1972-1979 HDtracks 192\Disc 2 - Desperado 1973\05-Desperado.flac
Format : FLAC
Format/Info : Free Lossless Audio Codec
File size : 131 MiB
Duration : 3mn 33s
Overall bit rate mode : Variable
Overall bit rate : 5 158 Kbps
Album : Desperado
Album/Performer : Eagles
Part : 2
Track name : Desperado
Track name/Position : 05
Performer : Eagles
Genre : Pop
Recorded date : 2013
HDTRACKS : www.hdtracks.com

Audio
Format : FLAC
Format/Info : Free Lossless Audio Codec
Duration : 3mn 33s
Bit rate mode : Variable
Bit rate : 5 137 Kbps
Channel(s) : 2 channels
Sampling rate : 192 KHz
Bit depth : 24 bits
Stream size : 131 MiB (100%)
Writing library : libFLAC 1.2.1 (UTC 2007-09-17)

General
Complete name : D:\Eric\music\Eagles - The Studio Albums 1972-1979 HDtracks 192\Disc 2 - Desperado 1973\06-Certain Kind Of Fool.flac
Format : FLAC
Format/Info : Free Lossless Audio Codec
File size : 116 MiB
Duration : 3mn 1s
Overall bit rate mode : Variable
Overall bit rate : 5 371 Kbps
Album : Desperado
Album/Performer : Eagles
Part : 2
Track name : Certain Kind Of Fool
Track name/Position : 06
Performer : Eagles
Genre : Pop
Recorded date : 2013
HDTRACKS : www.hdtracks.com

Audio
Format : FLAC
Format/Info : Free Lossless Audio Codec
Duration : 3mn 1s
Bit rate mode : Variable
Bit rate : 5 346 Kbps
Channel(s) : 2 channels
Sampling rate : 192 KHz
Bit depth : 24 bits
Stream size : 116 MiB (100%)
Writing library : libFLAC 1.2.1 (UTC 2007-09-17)

General
Complete name : D:\Eric\music\Eagles - The Studio Albums 1972-1979 HDtracks 192\Disc 2 - Desperado 1973\07-Doolin-Dalton (Instrumental Version).flac
Format : FLAC
Format/Info : Free Lossless Audio Codec
File size : 29.6 MiB
Duration : 47s 827ms
Overall bit rate mode : Variable
Overall bit rate : 5 193 Kbps
Album : Desperado
Album/Performer : Eagles
Part : 2
Track name : Doolin-Dalton (Instrumental Version)
Track name/Position : 07
Performer : Eagles
Genre : Pop
Recorded date : 2013
HDTRACKS : www.hdtracks.com

Audio
Format : FLAC
Format/Info : Free Lossless Audio Codec
Duration : 47s 827ms
Bit rate mode : Variable
Bit rate : 5 098 Kbps
Channel(s) : 2 channels
Sampling rate : 192 KHz
Bit depth : 24 bits
Stream size : 29.1 MiB (98%)
Writing library : libFLAC 1.2.1 (UTC 2007-09-17)

General
Complete name : D:\Eric\music\Eagles - The Studio Albums 1972-1979 HDtracks 192\Disc 2 - Desperado 1973\08-Outlaw Man.flac
Format : FLAC
Format/Info : Free Lossless Audio Codec
File size : 139 MiB
Duration : 3mn 33s
Overall bit rate mode : Variable
Overall bit rate : 5 460 Kbps
Album : Desperado
Album/Performer : Eagles
Part : 2
Track name : Outlaw Man
Track name/Position : 08
Performer : Eagles
Genre : Pop
Recorded date : 2013
HDTRACKS : www.hdtracks.com

Audio
Format : FLAC
Format/Info : Free Lossless Audio Codec
Duration : 3mn 33s
Bit rate mode : Variable
Bit rate : 5 438 Kbps
Channel(s) : 2 channels
Sampling rate : 192 KHz
Bit depth : 24 bits
Stream size : 138 MiB (100%)
Writing library : libFLAC 1.2.1 (UTC 2007-09-17)

General
Complete name : D:\Eric\music\Eagles - The Studio Albums 1972-1979 HDtracks 192\Disc 2 - Desperado 1973\09-Saturday Night.flac
Format : FLAC
Format/Info : Free Lossless Audio Codec
File size : 124 MiB
Duration : 3mn 20s
Overall bit rate mode : Variable
Overall bit rate : 5 198 Kbps
Album : Desperado
Album/Performer : Eagles
Part : 2
Track name : Saturday Night
Track name/Position : 09
Performer : Eagles
Genre : Pop
Recorded date : 2013
HDTRACKS : www.hdtracks.com

Audio
Format : FLAC
Format/Info : Free Lossless Audio Codec
Duration : 3mn 20s
Bit rate mode : Variable
Bit rate : 5 175 Kbps
Channel(s) : 2 channels
Sampling rate : 192 KHz
Bit depth : 24 bits
Stream size : 124 MiB (100%)
Writing library : libFLAC 1.2.1 (UTC 2007-09-17)

General
Complete name : D:\Eric\music\Eagles - The Studio Albums 1972-1979 HDtracks 192\Disc 2 - Desperado 1973\10-Bitter Creek.flac
Format : FLAC
Format/Info : Free Lossless Audio Codec
File size : 183 MiB
Duration : 5mn 1s
Overall bit rate mode : Variable
Overall bit rate : 5 112 Kbps
Album : Desperado
Album/Performer : Eagles
Part : 2
Track name : Bitter Creek
Track name/Position : 10
Performer : Eagles
Genre : Pop
Recorded date : 2013
HDTRACKS : www.hdtracks.com

Audio
Format : FLAC
Format/Info : Free Lossless Audio Codec
Duration : 5mn 1s
Bit rate mode : Variable
Bit rate : 5 097 Kbps
Channel(s) : 2 channels
Sampling rate : 192 KHz
Bit depth : 24 bits
Stream size : 183 MiB (100%)
Writing library : libFLAC 1.2.1 (UTC 2007-09-17)

General
Complete name : D:\Eric\music\Eagles - The Studio Albums 1972-1979 HDtracks 192\Disc 2 - Desperado 1973\11-Doolin-Dalton Desperado (Reprise).flac
Format : FLAC
Format/Info : Free Lossless Audio Codec
File size : 178 MiB
Duration : 4mn 51s
Overall bit rate mode : Variable
Overall bit rate : 5 120 Kbps
Album : Desperado
Album/Performer : Eagles
Part : 2
Track name : Doolin-Dalton/Desperado (Reprise)
Track name/Position : 11
Performer : Eagles
Genre : Pop
Recorded date : 2013
HDTRACKS : www.hdtracks.com

Audio
Format : FLAC
Format/Info : Free Lossless Audio Codec
Duration : 4mn 51s
Bit rate mode : Variable
Bit rate : 5 104 Kbps
Channel(s) : 2 channels
Sampling rate : 192 KHz
Bit depth : 24 bits
Stream size : 177 MiB (100%)
Writing library : libFLAC 1.2.1 (UTC 2007-09-17)
1 Already Gone 4:15
2 You Never Cry Like A Lover 4:00
3 Midnight Flyer 3:58
4 My Man 3:29
5 On The Border 4:23
6 James Dean 3:38
7 Ol' 55 4:21
8 Is It True? 3:14
9 Good Day In Hell 4:25
10 The Best Of My Love 4:34
General
Complete name : D:\Eric\music\Eagles - The Studio Albums 1972-1979 HDtracks 192\Disc 3 - On The Border 1974\01-Already Gone.flac
Format : FLAC
Format/Info : Free Lossless Audio Codec
File size : 154 MiB
Duration : 4mn 15s
Overall bit rate mode : Variable
Overall bit rate : 5 077 Kbps
Album : On the Border
Album/Performer : Eagles
Part : 3
Track name : Already Gone
Track name/Position : 01
Performer : Eagles
Genre : Pop
Recorded date : 2013
HDTRACKS : www.hdtracks.com

Audio
Format : FLAC
Format/Info : Free Lossless Audio Codec
Duration : 4mn 15s
Bit rate mode : Variable
Bit rate : 5 059 Kbps
Channel(s) : 2 channels
Sampling rate : 192 KHz
Bit depth : 24 bits
Stream size : 154 MiB (100%)
Writing library : libFLAC 1.2.1 (UTC 2007-09-17)

General
Complete name : D:\Eric\music\Eagles - The Studio Albums 1972-1979 HDtracks 192\Disc 3 - On The Border 1974\02-You Never Cry Like A Lover.flac
Format : FLAC
Format/Info : Free Lossless Audio Codec
File size : 141 MiB
Duration : 4mn 1s
Overall bit rate mode : Variable
Overall bit rate : 4 919 Kbps
Album : On the Border
Album/Performer : Eagles
Part : 3
Track name : You Never Cry Like A Lover
Track name/Position : 02
Performer : Eagles
Genre : Pop
Recorded date : 2013
HDTRACKS : www.hdtracks.com

Audio
Format : FLAC
Format/Info : Free Lossless Audio Codec
Duration : 4mn 1s
Bit rate mode : Variable
Bit rate : 4 900 Kbps
Channel(s) : 2 channels
Sampling rate : 192 KHz
Bit depth : 24 bits
Stream size : 141 MiB (100%)
Writing library : libFLAC 1.2.1 (UTC 2007-09-17)

General
Complete name : D:\Eric\music\Eagles - The Studio Albums 1972-1979 HDtracks 192\Disc 3 - On The Border 1974\03-Midnight Flyer.flac
Format : FLAC
Format/Info : Free Lossless Audio Codec
File size : 142 MiB
Duration : 3mn 58s
Overall bit rate mode : Variable
Overall bit rate : 5 009 Kbps
Album : On the Border
Album/Performer : Eagles
Part : 3
Track name : Midnight Flyer
Track name/Position : 03
Performer : Eagles
Genre : Pop
Recorded date : 2013
HDTRACKS : www.hdtracks.com

Audio
Format : FLAC
Format/Info : Free Lossless Audio Codec
Duration : 3mn 58s
Bit rate mode : Variable
Bit rate : 4 990 Kbps
Channel(s) : 2 channels
Sampling rate : 192 KHz
Bit depth : 24 bits
Stream size : 142 MiB (100%)
Writing library : libFLAC 1.2.1 (UTC 2007-09-17)

General
Complete name : D:\Eric\music\Eagles - The Studio Albums 1972-1979 HDtracks 192\Disc 3 - On The Border 1974\04-My Man.flac
Format : FLAC
Format/Info : Free Lossless Audio Codec
File size : 123 MiB
Duration : 3mn 29s
Overall bit rate mode : Variable
Overall bit rate : 4 915 Kbps
Album : On the Border
Album/Performer : Eagles
Part : 3
Track name : My Man
Track name/Position : 04
Performer : Eagles
Genre : Pop
Recorded date : 2013
HDTRACKS : www.hdtracks.com

Audio
Format : FLAC
Format/Info : Free Lossless Audio Codec
Duration : 3mn 29s
Bit rate mode : Variable
Bit rate : 4 893 Kbps
Channel(s) : 2 channels
Sampling rate : 192 KHz
Bit depth : 24 bits
Stream size : 122 MiB (100%)
Writing library : libFLAC 1.2.1 (UTC 2007-09-17)

General
Complete name : D:\Eric\music\Eagles - The Studio Albums 1972-1979 HDtracks 192\Disc 3 - On The Border 1974\05-On The Border.flac
Format : FLAC
Format/Info : Free Lossless Audio Codec
File size : 155 MiB
Duration : 4mn 23s
Overall bit rate mode : Variable
Overall bit rate : 4 922 Kbps
Album : On the Border
Album/Performer : Eagles
Part : 3
Track name : On The Border
Track name/Position : 05
Performer : Eagles
Genre : Pop
Recorded date : 2013
HDTRACKS : www.hdtracks.com

Audio
Format : FLAC
Format/Info : Free Lossless Audio Codec
Duration : 4mn 23s
Bit rate mode : Variable
Bit rate : 4 905 Kbps
Channel(s) : 2 channels
Sampling rate : 192 KHz
Bit depth : 24 bits
Stream size : 154 MiB (100%)
Writing library : libFLAC 1.2.1 (UTC 2007-09-17)

General
Complete name : D:\Eric\music\Eagles - The Studio Albums 1972-1979 HDtracks 192\Disc 3 - On The Border 1974\06-James Dean.flac
Format : FLAC
Format/Info : Free Lossless Audio Codec
File size : 130 MiB
Duration : 3mn 38s
Overall bit rate mode : Variable
Overall bit rate : 5 015 Kbps
Album : On the Border
Album/Performer : Eagles
Part : 3
Track name : James Dean
Track name/Position : 06
Performer : Eagles
Genre : Pop
Recorded date : 2013
HDTRACKS : www.hdtracks.com

Audio
Format : FLAC
Format/Info : Free Lossless Audio Codec
Duration : 3mn 38s
Bit rate mode : Variable
Bit rate : 4 994 Kbps
Channel(s) : 2 channels
Sampling rate : 192 KHz
Bit depth : 24 bits
Stream size : 130 MiB (100%)
Writing library : libFLAC 1.2.1 (UTC 2007-09-17)

General
Complete name : D:\Eric\music\Eagles - The Studio Albums 1972-1979 HDtracks 192\Disc 3 - On The Border 1974\07-Ol' 55.flac
Format : FLAC
Format/Info : Free Lossless Audio Codec
File size : 152 MiB
Duration : 4mn 21s
Overall bit rate mode : Variable
Overall bit rate : 4 869 Kbps
Album : On the Border
Album/Performer : Eagles
Part : 3
Track name : Ol' 55
Track name/Position : 07
Performer : Eagles
Genre : Pop
Recorded date : 2013
HDTRACKS : www.hdtracks.com

Audio
Format : FLAC
Format/Info : Free Lossless Audio Codec
Duration : 4mn 21s
Bit rate mode : Variable
Bit rate : 4 852 Kbps
Channel(s) : 2 channels
Sampling rate : 192 KHz
Bit depth : 24 bits
Stream size : 151 MiB (100%)
Writing library : libFLAC 1.2.1 (UTC 2007-09-17)

General
Complete name : D:\Eric\music\Eagles - The Studio Albums 1972-1979 HDtracks 192\Disc 3 - On The Border 1974\08-Is It True.flac
Format : FLAC
Format/Info : Free Lossless Audio Codec
File size : 116 MiB
Duration : 3mn 14s
Overall bit rate mode : Variable
Overall bit rate : 4 984 Kbps
Album : On the Border
Album/Performer : Eagles
Part : 3
Track name : Is It True?
Track name/Position : 08
Performer : Eagles
Genre : Pop
Recorded date : 2013
HDTRACKS : www.hdtracks.com

Audio
Format : FLAC
Format/Info : Free Lossless Audio Codec
Duration : 3mn 14s
Bit rate mode : Variable
Bit rate : 4 960 Kbps
Channel(s) : 2 channels
Sampling rate : 192 KHz
Bit depth : 24 bits
Stream size : 115 MiB (100%)
Writing library : libFLAC 1.2.1 (UTC 2007-09-17)

General
Complete name : D:\Eric\music\Eagles - The Studio Albums 1972-1979 HDtracks 192\Disc 3 - On The Border 1974\09-Good Day In Hell.flac
Format : FLAC
Format/Info : Free Lossless Audio Codec
File size : 157 MiB
Duration : 4mn 25s
Overall bit rate mode : Variable
Overall bit rate : 4 954 Kbps
Album : On the Border
Album/Performer : Eagles
Part : 3
Track name : Good Day In Hell
Track name/Position : 09
Performer : Eagles
Genre : Pop
Recorded date : 2013
HDTRACKS : www.hdtracks.com

Audio
Format : FLAC
Format/Info : Free Lossless Audio Codec
Duration : 4mn 25s
Bit rate mode : Variable
Bit rate : 4 937 Kbps
Channel(s) : 2 channels
Sampling rate : 192 KHz
Bit depth : 24 bits
Stream size : 156 MiB (100%)
Writing library : libFLAC 1.2.1 (UTC 2007-09-17)

General
Complete name : D:\Eric\music\Eagles - The Studio Albums 1972-1979 HDtracks 192\Disc 3 - On The Border 1974\10-The Best Of My Love.flac
Format : FLAC
Format/Info : Free Lossless Audio Codec
File size : 165 MiB
Duration : 4mn 34s
Overall bit rate mode : Variable
Overall bit rate : 5 045 Kbps
Album : On the Border
Album/Performer : Eagles
Part : 3
Track name : The Best Of My Love
Track name/Position : 10
Performer : Eagles
Genre : Pop
Recorded date : 2013
HDTRACKS : www.hdtracks.com

Audio
Format : FLAC
Format/Info : Free Lossless Audio Codec
Duration : 4mn 34s
Bit rate mode : Variable
Bit rate : 5 028 Kbps
Channel(s) : 2 channels
Sampling rate : 192 KHz
Bit depth : 24 bits
Stream size : 165 MiB (100%)
Writing library : libFLAC 1.2.1 (UTC 2007-09-17)
1 One Of These Nights 4:51
2 Too Many Hands 4:40
3 Hollywood Waltz 4:01
4 Journey Of The Sorcerer 6:37
5 Lyin' Eyes 6:21
6 Take It To The Limit 4:47
7 Visions 3:58
8 After The Thrill Is Gone 3:56
9 I Wish You Peace 3:45
General
Complete name : D:\Eric\music\Eagles - The Studio Albums 1972-1979 HDtracks 192\Disc 4 - One Of These Nights 1974\01-One Of These Nights.flac
Format : FLAC
Format/Info : Free Lossless Audio Codec
File size : 174 MiB
Duration : 4mn 51s
Overall bit rate mode : Variable
Overall bit rate : 5 004 Kbps
Album : One of These Nights
Album/Performer : Eagles
Part : 4
Track name : One Of These Nights
Track name/Position : 01
Performer : Eagles
Genre : Pop
Recorded date : 2013
HDTRACKS : www.hdtracks.com

Audio
Format : FLAC
Format/Info : Free Lossless Audio Codec
Duration : 4mn 51s
Bit rate mode : Variable
Bit rate : 4 988 Kbps
Channel(s) : 2 channels
Sampling rate : 192 KHz
Bit depth : 24 bits
Stream size : 173 MiB (100%)
Writing library : libFLAC 1.2.1 (UTC 2007-09-17)

General
Complete name : D:\Eric\music\Eagles - The Studio Albums 1972-1979 HDtracks 192\Disc 4 - One Of These Nights 1974\02-Too Many Hands.flac
Format : FLAC
Format/Info : Free Lossless Audio Codec
File size : 172 MiB
Duration : 4mn 40s
Overall bit rate mode : Variable
Overall bit rate : 5 138 Kbps
Album : One of These Nights
Album/Performer : Eagles
Part : 4
Track name : Too Many Hands
Track name/Position : 02
Performer : Eagles
Genre : Pop
Recorded date : 2013
HDTRACKS : www.hdtracks.com

Audio
Format : FLAC
Format/Info : Free Lossless Audio Codec
Duration : 4mn 40s
Bit rate mode : Variable
Bit rate : 5 122 Kbps
Channel(s) : 2 channels
Sampling rate : 192 KHz
Bit depth : 24 bits
Stream size : 172 MiB (100%)
Writing library : libFLAC 1.2.1 (UTC 2007-09-17)

General
Complete name : D:\Eric\music\Eagles - The Studio Albums 1972-1979 HDtracks 192\Disc 4 - One Of These Nights 1974\03-Hollywood Waltz.flac
Format : FLAC
Format/Info : Free Lossless Audio Codec
File size : 148 MiB
Duration : 4mn 1s
Overall bit rate mode : Variable
Overall bit rate : 5 128 Kbps
Album : One of These Nights
Album/Performer : Eagles
Part : 4
Track name : Hollywood Waltz
Track name/Position : 03
Performer : Eagles
Genre : Pop
Recorded date : 2013
HDTRACKS : www.hdtracks.com

Audio
Format : FLAC
Format/Info : Free Lossless Audio Codec
Duration : 4mn 1s
Bit rate mode : Variable
Bit rate : 5 109 Kbps
Channel(s) : 2 channels
Sampling rate : 192 KHz
Bit depth : 24 bits
Stream size : 147 MiB (100%)
Writing library : libFLAC 1.2.1 (UTC 2007-09-17)

General
Complete name : D:\Eric\music\Eagles - The Studio Albums 1972-1979 HDtracks 192\Disc 4 - One Of These Nights 1974\04-Journey Of The Sorcerer.flac
Format : FLAC
Format/Info : Free Lossless Audio Codec
File size : 238 MiB
Duration : 6mn 36s
Overall bit rate mode : Variable
Overall bit rate : 5 033 Kbps
Album : One of These Nights
Album/Performer : Eagles
Part : 4
Track name : Journey Of The Sorcerer
Track name/Position : 04
Performer : Eagles
Genre : Pop
Recorded date : 2013
HDTRACKS : www.hdtracks.com

Audio
Format : FLAC
Format/Info : Free Lossless Audio Codec
Duration : 6mn 36s
Bit rate mode : Variable
Bit rate : 5 021 Kbps
Channel(s) : 2 channels
Sampling rate : 192 KHz
Bit depth : 24 bits
Stream size : 238 MiB (100%)
Writing library : libFLAC 1.2.1 (UTC 2007-09-17)

General
Complete name : D:\Eric\music\Eagles - The Studio Albums 1972-1979 HDtracks 192\Disc 4 - One Of These Nights 1974\05-Lyin' Eyes.flac
Format : FLAC
Format/Info : Free Lossless Audio Codec
File size : 231 MiB
Duration : 6mn 21s
Overall bit rate mode : Variable
Overall bit rate : 5 071 Kbps
Album : One of These Nights
Album/Performer : Eagles
Part : 4
Track name : Lyin' Eyes
Track name/Position : 05
Performer : Eagles
Genre : Pop
Recorded date : 2013
HDTRACKS : www.hdtracks.com

Audio
Format : FLAC
Format/Info : Free Lossless Audio Codec
Duration : 6mn 21s
Bit rate mode : Variable
Bit rate : 5 060 Kbps
Channel(s) : 2 channels
Sampling rate : 192 KHz
Bit depth : 24 bits
Stream size : 230 MiB (100%)
Writing library : libFLAC 1.2.1 (UTC 2007-09-17)

General
Complete name : D:\Eric\music\Eagles - The Studio Albums 1972-1979 HDtracks 192\Disc 4 - One Of These Nights 1974\06-Take It To The Limit.flac
Format : FLAC
Format/Info : Free Lossless Audio Codec
File size : 174 MiB
Duration : 4mn 47s
Overall bit rate mode : Variable
Overall bit rate : 5 088 Kbps
Album : One of These Nights
Album/Performer : Eagles
Part : 4
Track name : Take It To The Limit
Track name/Position : 06
Performer : Eagles
Genre : Pop
Recorded date : 2013
HDTRACKS : www.hdtracks.com

Audio
Format : FLAC
Format/Info : Free Lossless Audio Codec
Duration : 4mn 47s
Bit rate mode : Variable
Bit rate : 5 072 Kbps
Channel(s) : 2 channels
Sampling rate : 192 KHz
Bit depth : 24 bits
Stream size : 174 MiB (100%)
Writing library : libFLAC 1.2.1 (UTC 2007-09-17)

General
Complete name : D:\Eric\music\Eagles - The Studio Albums 1972-1979 HDtracks 192\Disc 4 - One Of These Nights 1974\07-Visions.flac
Format : FLAC
Format/Info : Free Lossless Audio Codec
File size : 147 MiB
Duration : 3mn 58s
Overall bit rate mode : Variable
Overall bit rate : 5 183 Kbps
Album : One of These Nights
Album/Performer : Eagles
Part : 4
Track name : Visions
Track name/Position : 07
Performer : Eagles
Genre : Pop
Recorded date : 2013
HDTRACKS : www.hdtracks.com

Audio
Format : FLAC
Format/Info : Free Lossless Audio Codec
Duration : 3mn 58s
Bit rate mode : Variable
Bit rate : 5 164 Kbps
Channel(s) : 2 channels
Sampling rate : 192 KHz
Bit depth : 24 bits
Stream size : 147 MiB (100%)
Writing library : libFLAC 1.2.1 (UTC 2007-09-17)

General
Complete name : D:\Eric\music\Eagles - The Studio Albums 1972-1979 HDtracks 192\Disc 4 - One Of These Nights 1974\08-After The Thrill Is Gone.flac
Format : FLAC
Format/Info : Free Lossless Audio Codec
File size : 143 MiB
Duration : 3mn 56s
Overall bit rate mode : Variable
Overall bit rate : 5 064 Kbps
Album : One of These Nights
Album/Performer : Eagles
Part : 4
Track name : After The Thrill Is Gone
Track name/Position : 08
Performer : Eagles
Genre : Pop
Recorded date : 2013
HDTRACKS : www.hdtracks.com

Audio
Format : FLAC
Format/Info : Free Lossless Audio Codec
Duration : 3mn 56s
Bit rate mode : Variable
Bit rate : 5 045 Kbps
Channel(s) : 2 channels
Sampling rate : 192 KHz
Bit depth : 24 bits
Stream size : 142 MiB (100%)
Writing library : libFLAC 1.2.1 (UTC 2007-09-17)

General
Complete name : D:\Eric\music\Eagles - The Studio Albums 1972-1979 HDtracks 192\Disc 4 - One Of These Nights 1974\09-I Wish You Peace.flac
Format : FLAC
Format/Info : Free Lossless Audio Codec
File size : 136 MiB
Duration : 3mn 45s
Overall bit rate mode : Variable
Overall bit rate : 5 055 Kbps
Album : One of These Nights
Album/Performer : Eagles
Part : 4
Track name : I Wish You Peace
Track name/Position : 09
Performer : Eagles
Genre : Pop
Recorded date : 2013
HDTRACKS : www.hdtracks.com

Audio
Format : FLAC
Format/Info : Free Lossless Audio Codec
Duration : 3mn 45s
Bit rate mode : Variable
Bit rate : 5 035 Kbps
Channel(s) : 2 channels
Sampling rate : 192 KHz
Bit depth : 24 bits
Stream size : 135 MiB (100%)
Writing library : libFLAC 1.2.1 (UTC 2007-09-17)
1 Hotel California 6:31
2 New Kid In Town 5:04
3 Life In The Fast Lane 4:46
4 Wasted Time 4:56
5 Wasted Time (Reprise) 1:23
6 Victim Of Love 4:10
7 Pretty Maids All In A Row 3:59
8 Try And Love Again 5:11
9 The Last Resort 7:24
General
Complete name : D:\Eric\music\Eagles - The Studio Albums 1972-1979 HDtracks 192\Disc 5 - Hotel California 1976\01-Hotel California.flac
Format : FLAC
Format/Info : Free Lossless Audio Codec
File size : 241 MiB
Duration : 6mn 31s
Overall bit rate mode : Variable
Overall bit rate : 5 165 Kbps
Album : Hotel California
Album/Performer : Eagles
Part : 5
Track name : Hotel California
Track name/Position : 01
Performer : Eagles
Genre : Pop
Recorded date : 2013
Cover : Yes
Cover type : Cover (front)
Cover MIME : image/jpeg
HDTRACKS : www.hdtracks.com

Audio
Format : FLAC
Format/Info : Free Lossless Audio Codec
Duration : 6mn 31s
Bit rate mode : Variable
Bit rate : 5 153 Kbps
Channel(s) : 2 channels
Sampling rate : 192 KHz
Bit depth : 24 bits
Stream size : 240 MiB (100%)
Writing library : libFLAC 1.2.1 (UTC 2007-09-17)

General
Complete name : D:\Eric\music\Eagles - The Studio Albums 1972-1979 HDtracks 192\Disc 5 - Hotel California 1976\02-New Kid In Town.flac
Format : FLAC
Format/Info : Free Lossless Audio Codec
File size : 186 MiB
Duration : 5mn 4s
Overall bit rate mode : Variable
Overall bit rate : 5 121 Kbps
Album : Hotel California
Album/Performer : Eagles
Part : 5
Track name : New Kid In Town
Track name/Position : 02
Performer : Eagles
Genre : Pop
Recorded date : 2013
HDTRACKS : www.hdtracks.com

Audio
Format : FLAC
Format/Info : Free Lossless Audio Codec
Duration : 5mn 4s
Bit rate mode : Variable
Bit rate : 5 106 Kbps
Channel(s) : 2 channels
Sampling rate : 192 KHz
Bit depth : 24 bits
Stream size : 186 MiB (100%)
Writing library : libFLAC 1.2.1 (UTC 2007-09-17)

General
Complete name : D:\Eric\music\Eagles - The Studio Albums 1972-1979 HDtracks 192\Disc 5 - Hotel California 1976\03-Life In The Fast Lane.flac
Format : FLAC
Format/Info : Free Lossless Audio Codec
File size : 176 MiB
Duration : 4mn 46s
Overall bit rate mode : Variable
Overall bit rate : 5 160 Kbps
Album : Hotel California
Album/Performer : Eagles
Part : 5
Track name : Life In The Fast Lane
Track name/Position : 03
Performer : Eagles
Genre : Pop
Recorded date : 2013
Cover : Yes
Cover type : Cover (front)
Cover MIME : image/jpeg
HDTRACKS : www.hdtracks.com

Audio
Format : FLAC
Format/Info : Free Lossless Audio Codec
Duration : 4mn 46s
Bit rate mode : Variable
Bit rate : 5 144 Kbps
Channel(s) : 2 channels
Sampling rate : 192 KHz
Bit depth : 24 bits
Stream size : 175 MiB (100%)
Writing library : libFLAC 1.2.1 (UTC 2007-09-17)

General
Complete name : D:\Eric\music\Eagles - The Studio Albums 1972-1979 HDtracks 192\Disc 5 - Hotel California 1976\04-Wasted Time.flac
Format : FLAC
Format/Info : Free Lossless Audio Codec
File size : 178 MiB
Duration : 4mn 56s
Overall bit rate mode : Variable
Overall bit rate : 5 031 Kbps
Album : Hotel California
Album/Performer : Eagles
Part : 5
Track name : Wasted Time
Track name/Position : 04
Performer : Eagles
Genre : Pop
Recorded date : 2013
HDTRACKS : www.hdtracks.com

Audio
Format : FLAC
Format/Info : Free Lossless Audio Codec
Duration : 4mn 56s
Bit rate mode : Variable
Bit rate : 5 015 Kbps
Channel(s) : 2 channels
Sampling rate : 192 KHz
Bit depth : 24 bits
Stream size : 177 MiB (100%)
Writing library : libFLAC 1.2.1 (UTC 2007-09-17)

General
Complete name : D:\Eric\music\Eagles - The Studio Albums 1972-1979 HDtracks 192\Disc 5 - Hotel California 1976\05-Wasted Time (Reprise).flac
Format : FLAC
Format/Info : Free Lossless Audio Codec
File size : 50.2 MiB
Duration : 1mn 23s
Overall bit rate mode : Variable
Overall bit rate : 5 047 Kbps
Album : Hotel California
Album/Performer : Eagles
Part : 5
Track name : Wasted Time (Reprise)
Track name/Position : 05
Performer : Eagles
Genre : Pop
Recorded date : 2013
HDTRACKS : www.hdtracks.com

Audio
Format : FLAC
Format/Info : Free Lossless Audio Codec
Duration : 1mn 23s
Bit rate mode : Variable
Bit rate : 4 992 Kbps
Channel(s) : 2 channels
Sampling rate : 192 KHz
Bit depth : 24 bits
Stream size : 49.6 MiB (99%)
Writing library : libFLAC 1.2.1 (UTC 2007-09-17)

General
Complete name : D:\Eric\music\Eagles - The Studio Albums 1972-1979 HDtracks 192\Disc 5 - Hotel California 1976\06-Victim Of Love.flac
Format : FLAC
Format/Info : Free Lossless Audio Codec
File size : 157 MiB
Duration : 4mn 10s
Overall bit rate mode : Variable
Overall bit rate : 5 262 Kbps
Album : Hotel California
Album/Performer : Eagles
Part : 5
Track name : Victim Of Love
Track name/Position : 06
Performer : Eagles
Genre : Pop
Recorded date : 2013
HDTRACKS : www.hdtracks.com

Audio
Format : FLAC
Format/Info : Free Lossless Audio Codec
Duration : 4mn 10s
Bit rate mode : Variable
Bit rate : 5 243 Kbps
Channel(s) : 2 channels
Sampling rate : 192 KHz
Bit depth : 24 bits
Stream size : 156 MiB (100%)
Writing library : libFLAC 1.2.1 (UTC 2007-09-17)

General
Complete name : D:\Eric\music\Eagles - The Studio Albums 1972-1979 HDtracks 192\Disc 5 - Hotel California 1976\07-Pretty Maids All In A Row.flac
Format : FLAC
Format/Info : Free Lossless Audio Codec
File size : 142 MiB
Duration : 3mn 59s
Overall bit rate mode : Variable
Overall bit rate : 4 963 Kbps
Album : Hotel California
Album/Performer : Eagles
Part : 5
Track name : Pretty Maids All In A Row
Track name/Position : 07
Performer : Eagles
Genre : Pop
Recorded date : 2013
HDTRACKS : www.hdtracks.com

Audio
Format : FLAC
Format/Info : Free Lossless Audio Codec
Duration : 3mn 59s
Bit rate mode : Variable
Bit rate : 4 944 Kbps
Channel(s) : 2 channels
Sampling rate : 192 KHz
Bit depth : 24 bits
Stream size : 141 MiB (100%)
Writing library : libFLAC 1.2.1 (UTC 2007-09-17)

General
Complete name : D:\Eric\music\Eagles - The Studio Albums 1972-1979 HDtracks 192\Disc 5 - Hotel California 1976\08-Try And Love Again.flac
Format : FLAC
Format/Info : Free Lossless Audio Codec
File size : 195 MiB
Duration : 5mn 11s
Overall bit rate mode : Variable
Overall bit rate : 5 261 Kbps
Album : Hotel California
Album/Performer : Eagles
Part : 5
Track name : Try And Love Again
Track name/Position : 08
Performer : Eagles
Genre : Pop
Recorded date : 2013
HDTRACKS : www.hdtracks.com

Audio
Format : FLAC
Format/Info : Free Lossless Audio Codec
Duration : 5mn 11s
Bit rate mode : Variable
Bit rate : 5 246 Kbps
Channel(s) : 2 channels
Sampling rate : 192 KHz
Bit depth : 24 bits
Stream size : 195 MiB (100%)
Writing library : libFLAC 1.2.1 (UTC 2007-09-17)

General
Complete name : D:\Eric\music\Eagles - The Studio Albums 1972-1979 HDtracks 192\Disc 5 - Hotel California 1976\09-The Last Resort.flac
Format : FLAC
Format/Info : Free Lossless Audio Codec
File size : 266 MiB
Duration : 7mn 24s
Overall bit rate mode : Variable
Overall bit rate : 5 013 Kbps
Album : Hotel California
Album/Performer : Eagles
Part : 5
Track name : The Last Resort
Track name/Position : 09
Performer : Eagles
Genre : Pop
Recorded date : 2013
HDTRACKS : www.hdtracks.com

Audio
Format : FLAC
Format/Info : Free Lossless Audio Codec
Duration : 7mn 24s
Bit rate mode : Variable
Bit rate : 5 003 Kbps
Channel(s) : 2 channels
Sampling rate : 192 KHz
Bit depth : 24 bits
Stream size : 265 MiB (100%)
Writing library : libFLAC 1.2.1 (UTC 2007-09-17)
1 The Long Run 3:41
2 I Can't Tell You Why 4:55
3 In The City 3:44
4 The Disco Strangler 2:44
5 King Of Hollywood 6:27
6 Heartache Tonight 4:25
7 Those Shoes 4:54
8 Teenage Jail 3:43
9 The Greeks Don't Want No Freaks 2:18
10 The Sad Cafe 5:32
General
Complete name : D:\Eric\music\Eagles - The Studio Albums 1972-1979 HDtracks 192\Disc 6 - The Long Run 1979\01-The Long Run.flac
Format : FLAC
Format/Info : Free Lossless Audio Codec
File size : 136 MiB
Duration : 3mn 41s
Overall bit rate mode : Variable
Overall bit rate : 5 167 Kbps
Album : The Long Run
Album/Performer : Eagles
Part : 6
Track name : The Long Run
Track name/Position : 01
Performer : Eagles
Genre : Pop
Recorded date : 2013
Cover : Yes
Cover type : Cover (front)
Cover MIME : image/jpeg
HDTRACKS : www.hdtracks.com

Audio
Format : FLAC
Format/Info : Free Lossless Audio Codec
Duration : 3mn 41s
Bit rate mode : Variable
Bit rate : 5 146 Kbps
Channel(s) : 2 channels
Sampling rate : 192 KHz
Bit depth : 24 bits
Stream size : 136 MiB (100%)
Writing library : libFLAC 1.2.1 (UTC 2007-09-17)

General
Complete name : D:\Eric\music\Eagles - The Studio Albums 1972-1979 HDtracks 192\Disc 6 - The Long Run 1979\02-I Can't Tell You Why.flac
Format : FLAC
Format/Info : Free Lossless Audio Codec
File size : 174 MiB
Duration : 4mn 54s
Overall bit rate mode : Variable
Overall bit rate : 4 959 Kbps
Album : The Long Run
Album/Performer : Eagles
Part : 6
Track name : I Can't Tell You Why
Track name/Position : 02
Performer : Eagles
Genre : Pop
Recorded date : 2013
HDTRACKS : www.hdtracks.com

Audio
Format : FLAC
Format/Info : Free Lossless Audio Codec
Duration : 4mn 54s
Bit rate mode : Variable
Bit rate : 4 944 Kbps
Channel(s) : 2 channels
Sampling rate : 192 KHz
Bit depth : 24 bits
Stream size : 174 MiB (100%)
Writing library : libFLAC 1.2.1 (UTC 2007-09-17)

General
Complete name : D:\Eric\music\Eagles - The Studio Albums 1972-1979 HDtracks 192\Disc 6 - The Long Run 1979\03-In The City.flac
Format : FLAC
Format/Info : Free Lossless Audio Codec
File size : 138 MiB
Duration : 3mn 44s
Overall bit rate mode : Variable
Overall bit rate : 5 159 Kbps
Album : The Long Run
Album/Performer : Eagles
Part : 6
Track name : In The City
Track name/Position : 03
Performer : Eagles
Genre : Pop
Recorded date : 2013
HDTRACKS : www.hdtracks.com

Audio
Format : FLAC
Format/Info : Free Lossless Audio Codec
Duration : 3mn 44s
Bit rate mode : Variable
Bit rate : 5 139 Kbps
Channel(s) : 2 channels
Sampling rate : 192 KHz
Bit depth : 24 bits
Stream size : 138 MiB (100%)
Writing library : libFLAC 1.2.1 (UTC 2007-09-17)

General
Complete name : D:\Eric\music\Eagles - The Studio Albums 1972-1979 HDtracks 192\Disc 6 - The Long Run 1979\04-The Disco Strangler.flac
Format : FLAC
Format/Info : Free Lossless Audio Codec
File size : 98.7 MiB
Duration : 2mn 44s
Overall bit rate mode : Variable
Overall bit rate : 5 038 Kbps
Album : The Long Run
Album/Performer : Eagles
Part : 6
Track name : The Disco Strangler
Track name/Position : 04
Performer : Eagles
Genre : Pop
Recorded date : 2013
HDTRACKS : www.hdtracks.com

Audio
Format : FLAC
Format/Info : Free Lossless Audio Codec
Duration : 2mn 44s
Bit rate mode : Variable
Bit rate : 5 010 Kbps
Channel(s) : 2 channels
Sampling rate : 192 KHz
Bit depth : 24 bits
Stream size : 98.2 MiB (99%)
Writing library : libFLAC 1.2.1 (UTC 2007-09-17)

General
Complete name : D:\Eric\music\Eagles - The Studio Albums 1972-1979 HDtracks 192\Disc 6 - The Long Run 1979\05-King Of Hollywood.flac
Format : FLAC
Format/Info : Free Lossless Audio Codec
File size : 233 MiB
Duration : 6mn 27s
Overall bit rate mode : Variable
Overall bit rate : 5 031 Kbps
Album : The Long Run
Album/Performer : Eagles
Part : 6
Track name : King Of Hollywood
Track name/Position : 05
Performer : Eagles
Genre : Pop
Recorded date : 2013
HDTRACKS : www.hdtracks.com

Audio
Format : FLAC
Format/Info : Free Lossless Audio Codec
Duration : 6mn 27s
Bit rate mode : Variable
Bit rate : 5 019 Kbps
Channel(s) : 2 channels
Sampling rate : 192 KHz
Bit depth : 24 bits
Stream size : 232 MiB (100%)
Writing library : libFLAC 1.2.1 (UTC 2007-09-17)

General
Complete name : D:\Eric\music\Eagles - The Studio Albums 1972-1979 HDtracks 192\Disc 6 - The Long Run 1979\06-Heartache Tonight.flac
Format : FLAC
Format/Info : Free Lossless Audio Codec
File size : 162 MiB
Duration : 4mn 25s
Overall bit rate mode : Variable
Overall bit rate : 5 125 Kbps
Album : The Long Run
Album/Performer : Eagles
Part : 6
Track name : Heartache Tonight
Track name/Position : 06
Performer : Eagles
Genre : Pop
Recorded date : 2013
HDTRACKS : www.hdtracks.com

Audio
Format : FLAC
Format/Info : Free Lossless Audio Codec
Duration : 4mn 25s
Bit rate mode : Variable
Bit rate : 5 108 Kbps
Channel(s) : 2 channels
Sampling rate : 192 KHz
Bit depth : 24 bits
Stream size : 162 MiB (100%)
Writing library : libFLAC 1.2.1 (UTC 2007-09-17)

General
Complete name : D:\Eric\music\Eagles - The Studio Albums 1972-1979 HDtracks 192\Disc 6 - The Long Run 1979\07-Those Shoes.flac
Format : FLAC
Format/Info : Free Lossless Audio Codec
File size : 184 MiB
Duration : 4mn 54s
Overall bit rate mode : Variable
Overall bit rate : 5 248 Kbps
Album : The Long Run
Album/Performer : Eagles
Part : 6
Track name : Those Shoes
Track name/Position : 07
Performer : Eagles
Genre : Pop
Recorded date : 2013
HDTRACKS : www.hdtracks.com

Audio
Format : FLAC
Format/Info : Free Lossless Audio Codec
Duration : 4mn 54s
Bit rate mode : Variable
Bit rate : 5 233 Kbps
Channel(s) : 2 channels
Sampling rate : 192 KHz
Bit depth : 24 bits
Stream size : 184 MiB (100%)
Writing library : libFLAC 1.2.1 (UTC 2007-09-17)

General
Complete name : D:\Eric\music\Eagles - The Studio Albums 1972-1979 HDtracks 192\Disc 6 - The Long Run 1979\08-Teenage Jail.flac
Format : FLAC
Format/Info : Free Lossless Audio Codec
File size : 133 MiB
Duration : 3mn 44s
Overall bit rate mode : Variable
Overall bit rate : 4 987 Kbps
Album : The Long Run
Album/Performer : Eagles
Part : 6
Track name : Teenage Jail
Track name/Position : 08
Performer : Eagles
Genre : Pop
Recorded date : 2013
HDTRACKS : www.hdtracks.com

Audio
Format : FLAC
Format/Info : Free Lossless Audio Codec
Duration : 3mn 44s
Bit rate mode : Variable
Bit rate : 4 967 Kbps
Channel(s) : 2 channels
Sampling rate : 192 KHz
Bit depth : 24 bits
Stream size : 133 MiB (100%)
Writing library : libFLAC 1.2.1 (UTC 2007-09-17)

General
Complete name : D:\Eric\music\Eagles - The Studio Albums 1972-1979 HDtracks 192\Disc 6 - The Long Run 1979\09-The Greeks Don't Want No Freaks.flac
Format : FLAC
Format/Info : Free Lossless Audio Codec
File size : 86.4 MiB
Duration : 2mn 18s
Overall bit rate mode : Variable
Overall bit rate : 5 229 Kbps
Album : The Long Run
Album/Performer : Eagles
Part : 6
Track name : The Greeks Don't Want No Freaks
Track name/Position : 09
Performer : Eagles
Genre : Pop
Recorded date : 2013
HDTRACKS : www.hdtracks.com

Audio
Format : FLAC
Format/Info : Free Lossless Audio Codec
Duration : 2mn 18s
Bit rate mode : Variable
Bit rate : 5 196 Kbps
Channel(s) : 2 channels
Sampling rate : 192 KHz
Bit depth : 24 bits
Stream size : 85.9 MiB (99%)
Writing library : libFLAC 1.2.1 (UTC 2007-09-17)

General
Complete name : D:\Eric\music\Eagles - The Studio Albums 1972-1979 HDtracks 192\Disc 6 - The Long Run 1979\10-The Sad Cafe.flac
Format : FLAC
Format/Info : Free Lossless Audio Codec
File size : 201 MiB
Duration : 5mn 32s
Overall bit rate mode : Variable
Overall bit rate : 5 065 Kbps
Album : The Long Run
Album/Performer : Eagles
Part : 6
Track name : The Sad Cafe
Track name/Position : 10
Performer : Eagles
Genre : Pop
Recorded date : 2013
HDTRACKS : www.hdtracks.com

Audio
Format : FLAC
Format/Info : Free Lossless Audio Codec
Duration : 5mn 32s
Bit rate mode : Variable
Bit rate : 5 051 Kbps
Channel(s) : 2 channels
Sampling rate : 192 KHz
Bit depth : 24 bits
Stream size : 200 MiB (100%)
Writing library : libFLAC 1.2.1 (UTC 2007-09-17)
© 2013 Warner Strategic Marketing, a Warner Music Group Company
℗ 1972 Asylum Records
℗ 1973 Asylum Records
℗ 1974 Elektra/Asylum Records
℗ 1974 Elektra/Asylum Records
℗ 1976 Asylum Records
℗ 1979 Elektra/Asylum Records
The hi-res remastering of the entire Eagles box set was done using the original analog master tapes by Bernie Grundman Mastering using a JCF Audio Latte A/D converter.
Eagles – Eagles
Eagles is the legendary band’s Platinum-selling debut. The critically acclaimed work features the Top Forty singles “Take It Easy,” “Witchy Woman” and “Peaceful Easy Feeling.” The album played a major role in popularizing Southern California country-rock and is included on Rolling Stone’s “500 Greatest Albums of All Time.” “Take It Easy” is one of the Rock and Roll Hall of Fame’s “500 Songs That Shaped Rock and Roll.” Rolling Stone declared the album the best debut of 1972.
Eagles – Desperado
Desperado is the Eagles’ acclaimed sophomore outing. Charting in the United States, the U.K., Canada and New Zealand, the album was an international success. The work includes the signature Eagles’ tune “Desperado.” “Desperado” is included on Rolling Stone’s “500 Greatest Songs of All Time.” It also features the hits “Tequila Sunrise” and “Outlaw Man.” Desperado has sold over two million copies worldwide and is certified two-time Platinum.
Eagles – On The Border
On The Border, the two-time certified Platinum album, features the band transitioning into a harder-rock sound. Reaching the Top Twenty on the Billboard charts, the album features the arrival of Don Felder. On The Border includes the band’s first chart-topping hit “The Best Of My Love.” Also included are the hit singles “Already Gone” and “James Dean.” Absolutely essential.
Eagles – One Of These Nights
One Of These Nights is the Eagles’ fourth studio masterpiece. The album yielded the three Top Ten singles “One Of These Nights,” “Lyin’ Eyes” and “Take It To The Limit.” This four-time Platinum album is the band’s first to top the Billboard 200 and won the band its first GRAMMY® for “Lyin’ Eyes.” “Lyin’ Eyes” was also nominated for Record of the Year and One Of These Nights was nominated for Album of the Year. This breakthrough classic was the final album to feature Bernie Leadon and established them as one of America’s biggest bands.
Eagles – Hotel California
Easily one of the most celebrated albums in rock history, Hotel California was both the band's bestselling and most critically acclaimed record. One of Rolling Stone's "500 Greatest Albums of All Time," the album topped the Billboard chart in 1977 and featured two wildly successful #1 singles: "Hotel California" and "The New Kid in Town," both which won GRAMMY® awards.
Eagles – The Long Run
The Long Run is the band’s long-awaited follow-up to Hotel California. The album is certified seven-time Platinum and includes the massive hits “Heartache Tonight,” “The Long Run” and “I Can’t Tell You Why.” It reached #1 on the Billboard charts and spent eight weeks there. “Heartache Tonight” won the band a GRAMMY® for Best Rock Performance By A Duo or Group With Vocal.
Время раздачи: 24/7 по возможности
[NNM-Club.me]_Eagles - The Studio Albums 1972-1979 HDtracks 192.torrent
 Торрент: Платиновая раздача  Зарегистрирован
 
Скачать


 Зарегистрирован:   20 Окт 2013 13:59:32
 Размер:   8.69 GB  (
 Рейтинг:   4.9 (Голосов: 50)
 Поблагодарили:   198
 Проверка:   Оформление проверено модератором 20 Окт 2013 14:00:23
Как cкачать  ·  Как раздать  ·  Правильно оформить  ·  Поднять ратио!  
AiBolit1970
Стаж: 14 лет 8 мес.
Сообщений: 86
Ratio: 2.635
100%
russia.gif
Спасибо огромное!
passerby777
Стаж: 11 лет 4 мес.
Сообщений: 13
Ratio: 10.148
75.89%
спасибо и поддержите раздачу кто скачал
white_cat
Uploader 500+
Стаж: 17 лет 6 мес.
Сообщений: 179
Ratio: 433.931
Раздал: 615.6 TB
Поблагодарили: 1133
100%
Откуда: Санкт-Петербург
pirates.png
Встал на раздачу
Weddnessday
Покровитель талантов
Стаж: 12 лет 6 мес.
Сообщений: 958
Ratio: 24.489
Раздал: 28.87 TB
Поблагодарили: 4110
100%
Откуда: Сургут
russia.gif
Eagles (1972)
Desperado (1973)
On the Border (1974)
One of These Nights (1975)
Hotel California (1976)
The Long Run (1979)
Hell Freezes Over (1994)
The Long Road Out Of Eden (2007)
Топик был перенесен из форума WEB-DL-Audio в форум Архив Музыки

Причина переноса: Длительное отсутствие сида на протяжении более 6 месяцев.

Исправил релиз - напиши ЛС ALLic, дав ссылку на релиз.
Если нет ответа 24 часа - нажми на кнопку "Обратить внимание модераторов".
Показать сообщения:   
Начать новую тему   Ответить на тему    Торрент-трекер NNM-Club -> Архив торрентов -> Архив Музыки Часовой пояс: GMT + 3
Страница 1 из 1