Классический форум-трекер
canvas not supported
Нас вместе: 4 205 734

Изабелла, дьявольская герцогиня / Isabella, duchessa dei diavoli (1969) DVDRip [H.264] [VO]


 
 
RSS
Начать новую тему   Ответить на тему    Торрент-трекер NNM-Club -> Классика кино и Старые фильмы до 90-х -> Старые Зарубежные Фильмы (HD*Rip/LQ, DVDRip, SATRip, VHSRip)
Автор Сообщение
охрана ®
RG Releasers
Стаж: 11 лет 7 мес.
Сообщений: 4401
Ratio: 834.799
Поблагодарили: 589695
100%
Откуда: СССР
ussr.gif
Изабелла, дьявольская герцогиня / Isabella, duchessa dei diavoli (1969) DVDRip [H.264]
Год выпуска: 1969
Жанр: Приключения
Производство: Италия, Германия (ФРГ) /Cinesecolo, Hape-Film Company GmbH, Internazionale Nembo Distribuzione Importazione Esportazione Film (INDIEF)

Описание фильма:
Родителей Изабеллы, герцога и герцогиню де Фрессак, убил зловещий барон фон Нюттер. Девочку чудом спас цыган и теперь, лишь много лет спустя узнав о своем подлинном происхождении, воспитанная цыганами аристократка готова отомстить узурпатору и вернуть свое наследие…

Режиссер: Бруно Корбуччи
Сценарий: Марио Амендола, Элизабет Форстер
Продюсер: Роб Хаувер
Актеры: Бриджит Скай, Миммо Пальмара, Сальваторе Боргезе, Фред Уильямс, Элина Де Уитт, Марио Новелли, Ренато Бальдини, Энцо Андронико, Джойя Дезидери

Продолжительность: 01:29:34
Качество видео: DVDRip
Перевод: Одноголосый закадровый, любительский (den904)



Дата мировой премьеры: 30 августа 1969

Видеокодек: MPEG-4 AVC/H.264
Битрейт видео: ~1998 Кбит/сек
Размер кадра: 720x400
Аудиокодек: AC3 2.0
Битрейт аудио: 192 Кбит/сек
General
Unique ID : 200595507639262651699610550475557332663 (0x96E94A1BD54ED2989A0CBE0801F666B7)
Complete name : F:\Downloads\Изабелла, дьявольская герцогиня.mkv
Format : Matroska
Format version : Version 4 / Version 2
File size : 1.37 GiB
Duration : 1h 29mn
Overall bit rate : 2 192 Kbps
Encoded date : UTC 2014-01-17 12:16:07
Writing application : mkvmerge v6.4.1 ('Omega Point') built on Sep 16 2013 22:05:10
Writing library : libebml v1.3.0 + libmatroska v1.4.1

Video
ID : 1
Format : AVC
Format/Info : Advanced Video Codec
Format profile : High@L3.1
Format settings, CABAC : Yes
Format settings, ReFrames : 8 frames
Codec ID : V_MPEG4/ISO/AVC
Duration : 1h 29mn
Bit rate : 1 998 Kbps
Width : 720 pixels
Height : 400 pixels
Display aspect ratio : 16:9
Frame rate mode : Constant
Frame rate : 25.000 fps
Color space : YUV
Chroma subsampling : 4:2:0
Bit depth : 8 bits
Scan type : Progressive
Bits/(Pixel*Frame) : 0.278
Stream size : 1.22 GiB (89%)
Title : Isabella Duchessa Dei Diavoli
Writing library : x264 core 130 r2273 b3065e6
Encoding settings : cabac=1 / ref=8 / deblock=1:0:0 / analyse=0x3:0x133 / me=umh / subme=9 / psy=1 / psy_rd=1.00:0.00 / mixed_ref=1 / me_range=32 / chroma_me=1 / trellis=2 / 8x8dct=1 / cqm=0 / deadzone=21,11 / fast_pskip=0 / chroma_qp_offset=-2 / threads=6 / lookahead_threads=1 / sliced_threads=0 / nr=0 / decimate=1 / interlaced=0 / bluray_compat=0 / constrained_intra=0 / bframes=3 / b_pyramid=2 / b_adapt=2 / b_bias=0 / direct=3 / weightb=1 / open_gop=0 / weightp=2 / keyint=250 / keyint_min=25 / scenecut=40 / intra_refresh=0 / rc_lookahead=60 / rc=2pass / mbtree=1 / bitrate=1998 / ratetol=1.0 / qcomp=0.60 / qpmin=10 / qpmax=51 / qpstep=4 / cplxblur=20.0 / qblur=0.5 / ip_ratio=1.40 / aq=1:1.00
Language : English
Default : Yes
Forced : No

Audio
ID : 2
Format : AC-3
Format/Info : Audio Coding 3
Mode extension : CM (complete main)
Format settings, Endianness : Big
Codec ID : A_AC3
Duration : 1h 29mn
Bit rate mode : Constant
Bit rate : 192 Kbps
Channel(s) : 2 channels
Channel positions : Front: L R
Sampling rate : 48.0 KHz
Bit depth : 16 bits
Compression mode : Lossy
Stream size : 123 MiB (9%)
Title : Одноголосый закадровый, den904
Language : Russian
Default : Yes
Forced : No
Скриншоты:




Время раздачи: с 13:00 до 01:00 по Москве (выходные круглосуточно), до 10 скачавших
[NNM-Club.me]_Izabella, d'yavol'skaya gertsoginya.mkv.torrent
 Торрент: Платиновая раздача  Зарегистрирован
 
Скачать


Примагнититься
 Зарегистрирован:   18 Янв 2014 02:25:54
 Размер:   1.37 GB  (
 Рейтинг:   4.7 (Голосов: 15)
 Поблагодарили:   112
 Проверка:   Оформление проверено модератором 18 Янв 2014 06:05:58
Как cкачать  ·  Как раздать  ·  Правильно оформить  ·  Поднять ратио!  
starik_pilot
Стаж: 12 лет 3 мес.
Сообщений: 751
Ratio: 7.603
100%
Откуда: Москаль чистопородный
russia.gif
Здесь напрашивается вторая серия.
Показать сообщения:   
Начать новую тему   Ответить на тему    Торрент-трекер NNM-Club -> Классика кино и Старые фильмы до 90-х -> Старые Зарубежные Фильмы (HD*Rip/LQ, DVDRip, SATRip, VHSRip) Часовой пояс: GMT + 3
Страница 1 из 1