Классический форум-трекер
canvas not supported
Нас вместе: 4 166 408

M.Ill.Ion - Kingsize (2004) [FLAC|Lossless]<Hard Rock>


 
 
RSS
Начать новую тему   Ответить на тему    Торрент-трекер NNM-Club -> Архив торрентов -> Архив Музыки
Автор Сообщение
Pashketan ®
Куратор Музыки
Стаж: 11 лет 10 мес.
Сообщений: 9589
Ratio: 13.133
Поблагодарили: 164819
100%
nnm-club.gif
M.Ill.Ion - Kingsize (2004)
Год: 2004
Жанр: Hard Rock
Лейбл: Majestic Rock Records
Каталог #: ARMJ024
Продолжительность: 00:53:05
Кодек: FLAC
Тип рипа: image + .cue
Битрейт: Lossless
Треклист:
01. Eyes Of A King (4:40)
02. Backdoor Queen (3:59)
03. Room No.3 (4:52)
04. Rock N’ Roll Nation (4:28)
05. On And On (3:55)
06. Forbidden Fruit (5:28)
07. Zombies (5:10)
08. Fight You Forever (4:36)
09. Killing The Messenger (4:52)
10. Prison Of Power (4:19)
11. Those Eyes (4:32)
12. Blues (Bonus Track) (2:15)
Код:

Exact Audio Copy V1.0 beta 3 from 29. August 2011

EAC extraction logfile from 12. January 2014, 11:25

M.Ill.Ion / Kingsize

Used drive  : ATAPI   iHAP122   9   Adapter: 3  ID: 0

Read mode               : Secure
Utilize accurate stream : Yes
Defeat audio cache      : Yes
Make use of C2 pointers : No

Read offset correction                      : 6
Overread into Lead-In and Lead-Out          : No
Fill up missing offset samples with silence : Yes
Delete leading and trailing silent blocks   : No
Null samples used in CRC calculations       : Yes
Used interface                              : Installed external ASPI interface

Used output format              : User Defined Encoder
Selected bitrate                : 1024 kBit/s
Quality                         : High
Add ID3 tag                     : No
Command line compressor         : C:\Program Files\FLAC\flac.exe
Additional command line options : -V -8 -T "Date=%year%" -T "Genre=%genre%" -T"COMMENT=Ripped by  Ilijan" -8 -V %source%

TOC of the extracted CD

     Track |   Start  |  Length  | Start sector | End sector
    ---------------------------------------------------------
        1  |  0:00.00 |  4:39.42 |         0    |    20966
        2  |  4:39.42 |  3:58.43 |     20967    |    38859
        3  |  8:38.10 |  4:51.71 |     38860    |    60755
        4  | 13:30.06 |  4:27.69 |     60756    |    80849
        5  | 17:58.00 |  3:55.24 |     80850    |    98498
        6  | 21:53.24 |  5:27.51 |     98499    |   123074
        7  | 27:21.00 |  5:09.70 |    123075    |   146319
        8  | 32:30.70 |  4:36.20 |    146320    |   167039
        9  | 37:07.15 |  4:52.07 |    167040    |   188946
       10  | 41:59.22 |  4:19.15 |    188947    |   208386
       11  | 46:18.37 |  4:31.53 |    208387    |   228764
       12  | 50:50.15 |  2:14.67 |    228765    |   238881

Range status and errors

Selected range

     Filename D:\Ilijan\M.Ill.Ion - Kingsize.wav

     Peak level 99.4 %
     Extraction speed 5.7 X
     Range quality 100.0 %
     Test CRC 41DEDD93
     Copy CRC 41DEDD93
     Copy OK

No errors occurred

AccurateRip summary

Track  1  accurately ripped (confidence 1)  [EF6AA5D9]  (AR v2)
Track  2  accurately ripped (confidence 1)  [0B61D9F7]  (AR v2)
Track  3  accurately ripped (confidence 1)  [A93A80CC]  (AR v2)
Track  4  accurately ripped (confidence 1)  [C6F9A1FA]  (AR v2)
Track  5  accurately ripped (confidence 1)  [BC6AA4D3]  (AR v2)
Track  6  accurately ripped (confidence 1)  [495C78C1]  (AR v2)
Track  7  accurately ripped (confidence 1)  [1C72EB49]  (AR v2)
Track  8  accurately ripped (confidence 1)  [FD346DEA]  (AR v2)
Track  9  accurately ripped (confidence 1)  [C6CE1EA1]  (AR v2)
Track 10  accurately ripped (confidence 1)  [FE788182]  (AR v2)
Track 11  accurately ripped (confidence 1)  [C70932DD]  (AR v2)
Track 12  accurately ripped (confidence 1)  [25E3C2F4]  (AR v2)

All tracks accurately ripped

End of status report

---- CUETools DB Plugin V2.1.3

[CTDB TOCID: rMHXx4vr1rEYbqIfVdKH0C.zs00-] found, Submit result: rMHXx4vr1rEYbqIfVdKH0C.zs00- has been confirmed
[1ba8be9a] (1/1) Accurately ripped

==== Log checksum 7DDF54B3B8E0938DEB5399D6596B8CDE75124452D1A43FC3406C9DEDEB849E7B ====

Код:

-----------------------

DON'T MODIFY THIS FILE

-----------------------

PERFORMER: auCDtect Task Manager, ver. 1.6.0 RC1 build 1.6.0.1
Copyright (c) 2008-2010 y-soft. All rights reserved
http://y-soft.org

ANALYZER: auCDtect: CD records authenticity detector, version 0.8.2
Copyright (c) 2004 Oleg Berngardt. All rights reserved.
Copyright (c) 2004 Alexander Djourik. All rights reserved.

FILE: M.Ill.Ion - Kingsize.flac
  Size: 409765169 Hash: FFBA94DB8CCA57C03AAD7601806E436D Accuracy: -m0
  Conclusion: CDDA 100%
  Signature: 8BAC4F5AE755C73A19CD2FC78A55584CF61795FF

Код:

REM GENRE "Melodic Heavy Metal"
REM DATE 2004
REM DISCID 850C710C
REM COMMENT "ExactAudioCopy v1.0b3"
PERFORMER "M.Ill.Ion"
TITLE "Kingsize"
FILE "M.Ill.Ion - Kingsize.flac" WAVE
  TRACK 01 AUDIO
    TITLE "Eyes Of A King"
    PERFORMER "M.Ill.Ion"
    FLAGS DCP
    INDEX 01 00:00:00
  TRACK 02 AUDIO
    TITLE "Backdoor Queen"
    PERFORMER "M.Ill.Ion"
    FLAGS DCP
    INDEX 01 04:39:42
  TRACK 03 AUDIO
    TITLE "Room No.3"
    PERFORMER "M.Ill.Ion"
    FLAGS DCP
    INDEX 01 08:38:10
  TRACK 04 AUDIO
    TITLE "Rock N’ Roll Nation"
    PERFORMER "M.Ill.Ion"
    FLAGS DCP
    INDEX 01 13:30:06
  TRACK 05 AUDIO
    TITLE "On And On"
    PERFORMER "M.Ill.Ion"
    FLAGS DCP
    INDEX 01 17:58:00
  TRACK 06 AUDIO
    TITLE "Forbidden Fruit"
    PERFORMER "M.Ill.Ion"
    FLAGS DCP
    INDEX 01 21:53:24
  TRACK 07 AUDIO
    TITLE "Zombies"
    PERFORMER "M.Ill.Ion"
    FLAGS DCP
    INDEX 01 27:21:00
  TRACK 08 AUDIO
    TITLE "Fight You Forever"
    PERFORMER "M.Ill.Ion"
    FLAGS DCP
    INDEX 01 32:30:70
  TRACK 09 AUDIO
    TITLE "Killing The Messenger"
    PERFORMER "M.Ill.Ion"
    FLAGS DCP
    INDEX 01 37:07:15
  TRACK 10 AUDIO
    TITLE "Prison Of Power"
    PERFORMER "M.Ill.Ion"
    FLAGS DCP
    INDEX 01 41:59:22
  TRACK 11 AUDIO
    TITLE "Those Eyes"
    PERFORMER "M.Ill.Ion"
    FLAGS DCP
    INDEX 01 46:18:37
  TRACK 12 AUDIO
    TITLE "Blues (Bonus Track)"
    PERFORMER "M.Ill.Ion"
    FLAGS DCP
    INDEX 01 50:50:15

Код:

[CUETools log; Date: 09.02.2014 22:28:17; Version: 2.1.4]
[CTDB TOCID: rMHXx4vr1rEYbqIfVdKH0C.zs00-] found.
Track | CTDB Status
  1   | (2/2) Accurately ripped
  2   | (2/2) Accurately ripped
  3   | (2/2) Accurately ripped
  4   | (2/2) Accurately ripped
  5   | (2/2) Accurately ripped
  6   | (2/2) Accurately ripped
  7   | (2/2) Accurately ripped
  8   | (2/2) Accurately ripped
  9   | (2/2) Accurately ripped
 10   | (2/2) Accurately ripped
 11   | (2/2) Accurately ripped
 12   | (2/2) Accurately ripped
[AccurateRip ID: 00186f44-00e45779-850c710c] found.
Track   [  CRC   |   V2   ] Status
 01     [71a31986|ef6aa5d9] (0+1/1) Accurately ripped
 02     [56224f05|0b61d9f7] (0+1/1) Accurately ripped
 03     [ef520e6b|a93a80cc] (0+1/1) Accurately ripped
 04     [9248f64c|c6f9a1fa] (0+1/1) Accurately ripped
 05     [4501649b|bc6aa4d3] (0+1/1) Accurately ripped
 06     [2d54d58b|495c78c1] (0+1/1) Accurately ripped
 07     [2973e2c0|1c72eb49] (0+1/1) Accurately ripped
 08     [a31cadb4|fd346dea] (0+1/1) Accurately ripped
 09     [6c652e44|c6ce1ea1] (0+1/1) Accurately ripped
 10     [40adcd78|fe788182] (0+1/1) Accurately ripped
 11     [6eea35c6|c70932dd] (0+1/1) Accurately ripped
 12     [0db34408|25e3c2f4] (0+1/1) Accurately ripped

Track Peak [ CRC32  ] [W/O NULL] [  LOG   ]
 --   99,4 [41DEDD93] [998FC680]   CRC32
 01   99,4 [9025CF79] [3C3ABCCA]
 02   99,4 [34522D88] [6AED43C9]
 03   99,4 [7DFF5320] [9077E430]
 04   99,4 [97A6112C] [53273210]
 05   99,4 [021CC1FA] [A2762626]
 06   99,4 [05A986A1] [EF8B673C]
 07   99,4 [2B97BD4C] [B627C6D7]
 08   99,4 [1429443B] [6E369729]
 09   99,4 [3D643B64] [B579D102]
 10   99,4 [9A5BF681] [276B03B6]
 11   99,4 [90FB2C0F] [677D7F2D]
 12   99,4 [6F969DA6] [372F6BF0]

Время раздачи: 24/7 (круглосуточно)


Поглощение/вытеснение
Только с согласия релизера

foralreg
[NNM-Club.me]_M.Ill.Ion - Kingsize[JP] (2004).torrent
 Торрент:   Зарегистрирован
 
Зарегистрируйтесь и скачайте торрент!
19.5 KB

Примагнититься
 Зарегистрирован:   09 Фев 2014 21:29:22
 Размер:   459 MB  (
 Рейтинг:   4.6 (Голосов: 13)
 Поблагодарили:   27
 Проверка:   Оформление проверено модератором 10 Фев 2014 11:31:32
Как cкачать  ·  Как раздать  ·  Правильно оформить  ·  Поднять ратио!  
Топик был перенесен из форума Hard Rock (Lossless) в форум Архив Музыки

Причина переноса: Длительное отсутствие сида на протяжении более 6 месяцев.

Исправил релиз - напиши ЛС chaosman1986, дав ссылку на релиз.
Если нет ответа 24 часа - нажми на кнопку "Обратить внимание модераторов".
Показать сообщения:   
Начать новую тему   Ответить на тему    Торрент-трекер NNM-Club -> Архив торрентов -> Архив Музыки Часовой пояс: GMT + 3
Страница 1 из 1