Классический форум-трекер
canvas not supported
Нас вместе: 4 151 262

Andrea Schroeder - Where The Wild Oceans End (2014) [FLAC|Lossless]<Alternative Rock, Indie>


 
 
RSS
Начать новую тему   Ответить на тему    Торрент-трекер NNM-Club -> Rock, Alternative, Punk, Metal -> Alternative, Punk (Lossless)
Автор Сообщение
Fraudy ®
Стаж: 11 лет 4 мес.
Сообщений: 2179
Ratio: 140.374
Раздал: 51.08 TB
Поблагодарили: 58813
100%
ussr.gif
Andrea Schroeder - Where The Wild Oceans End (2014)



Год: 2014
Жанр: Alternative Rock, Indie
Лейбл: Glitterhouse Records
Каталог: GRCD/LP 776
Продолжительность: 00:40:25

Кодек: FLAC
Битрейт: Lossless
Тип рипа: tracks+.cue

Треклист:

01. Dead Man's Eyes (03:53)
02. Ghosts of Berlin (04:39)
03. Until the End (03:50)
04. Helden (05:11)
05. Fireland (03:32)
06. The Spider (03:58)
07. Where the Wild Oceans End (04:18)
08. The Rattlesnake (02:56)
09. Summer Came to Say Goodbye (03:57)
10. Walk Into the Silence (04:06)






Код:

Exact Audio Copy V1.0 beta 3 from 29. August 2011

EAC Auslese-Logdatei vom 25. Januar 2014, 1:28

Andrea Schoeder / Where The Wild Oceans End

Benutztes Laufwerk : HL-DT-STDVDRAM GSA-4163B   Adapter: 1  ID: 1

Lesemodus                      : Sicher
Benutze Accurate Stream        : Ja
Audio Puffer abgeschaltet      : Nein
Benutze C2 Fehlerinformationen : Ja

Kombinierte Lese/Schreiboffset Korrektur       : 0
Überlesen in das Lead-In und Lead-Out          : Nein
Fülle fehlende Offsetsample mit Stille auf     : Ja
Lösche führende und nachfolgende stille Blöcke : Nein
Null Samples gehen in CRC Berechnungen ein     : Ja
Benutzte Schnittstelle                         : Natürliche Win32 Schnittstelle für Win NT/2000/XP
Pausenbehandlung                               : Nicht erkannt, daher hinter dem vorigen Track angehängt

Benutztes Ausgabeformat            : Benutzerdefinierter Komprimierer
Gewählte Bitrate                   : 768 kBit/s
Qualität                           : Hoch
Füge ID3 Tag hinzu                 : Nein
Kommandozeilen Komprimierer        : C:\Program Files (x86)\Exact Audio Copy\FLAC\FLAC.EXE
Zusätzliche Kommandozeilenoptionen : -6 -V -T "ARTIST=%artist%" -T "TITLE=%title%" -T "ALBUM=%albumtitle%" -T "DATE=%year%" -T "TRACKNUMBER=%tracknr%" -T "GENRE=%genre%" -T "COMMENT=%comment%" -T "BAND=%albuminterpret%" -T "ALBUMARTIST=%albuminterpret%" -T "COMPOSER=%composer%" %haslyrics%--tag-from-file=LYRICS="%lyricsfile%"%haslyrics% -T "DISCNUMBER=%cdnumber%" -T "TOTALDISCS=%totalcds%" -T "TOTALTRACKS=%numtracks%" %hascover%--picture="%coverfile%"%hascover% %source% -o %dest%

TOC der ausgelesenen CD

     Track |   Start  |   Länge  | Startsektor | Endsektor
    -------------------------------------------------------
        1  |  0:00.00 |  3:53.73 |        0    |   17547
        2  |  3:53.73 |  4:39.08 |    17548    |   38480
        3  |  8:33.06 |  3:50.70 |    38481    |   55800
        4  | 12:24.01 |  5:11.32 |    55801    |   79157
        5  | 17:35.33 |  3:32.69 |    79158    |   95126
        6  | 21:08.27 |  3:58.06 |    95127    |  112982
        7  | 25:06.33 |  4:18.54 |   112983    |  132386
        8  | 29:25.12 |  2:56.36 |   132387    |  145622
        9  | 32:21.48 |  3:57.37 |   145623    |  163434
       10  | 36:19.10 |  4:06.61 |   163435    |  181945

Track  1

     Dateiname C:\Users\mogens\Desktop\Andrea Schoeder\Where The Wild Oceans End\01 Track01.wav

     Spitzenpegel 97.7 %
     Auslesegeschwindigkeit 18.4 X
     Track Qualität 100.0 %
     Kopie CRC 3C29D02A
     Kopie OK

Track  2

     Dateiname C:\Users\mogens\Desktop\Andrea Schoeder\Where The Wild Oceans End\02 Track02.wav

     Spitzenpegel 97.7 %
     Auslesegeschwindigkeit 19.8 X
     Track Qualität 100.0 %
     Kopie CRC 1D4FD7EF
     Kopie OK

Track  3

     Dateiname C:\Users\mogens\Desktop\Andrea Schoeder\Where The Wild Oceans End\03 Track03.wav

     Spitzenpegel 97.7 %
     Auslesegeschwindigkeit 21.0 X
     Track Qualität 100.0 %
     Kopie CRC 07E4341F
     Kopie OK

Track  4

     Dateiname C:\Users\mogens\Desktop\Andrea Schoeder\Where The Wild Oceans End\04 Track04.wav

     Spitzenpegel 97.7 %
     Auslesegeschwindigkeit 25.2 X
     Track Qualität 100.0 %
     Kopie CRC F00C7646
     Kopie OK

Track  5

     Dateiname C:\Users\mogens\Desktop\Andrea Schoeder\Where The Wild Oceans End\05 Track05.wav

     Spitzenpegel 97.7 %
     Auslesegeschwindigkeit 27.1 X
     Track Qualität 100.0 %
     Kopie CRC 2DF60C2D
     Kopie OK

Track  6

     Dateiname C:\Users\mogens\Desktop\Andrea Schoeder\Where The Wild Oceans End\06 Track06.wav

     Spitzenpegel 97.7 %
     Auslesegeschwindigkeit 28.6 X
     Track Qualität 100.0 %
     Kopie CRC 971B4EB8
     Kopie OK

Track  7

     Dateiname C:\Users\mogens\Desktop\Andrea Schoeder\Where The Wild Oceans End\07 Track07.wav

     Spitzenpegel 97.7 %
     Auslesegeschwindigkeit 27.6 X
     Track Qualität 100.0 %
     Kopie CRC B6F9C89C
     Kopie OK

Track  8

     Dateiname C:\Users\mogens\Desktop\Andrea Schoeder\Where The Wild Oceans End\08 Track08.wav

     Spitzenpegel 97.7 %
     Auslesegeschwindigkeit 27.1 X
     Track Qualität 100.0 %
     Kopie CRC BB6EC9E1
     Kopie OK

Track  9

     Dateiname C:\Users\mogens\Desktop\Andrea Schoeder\Where The Wild Oceans End\09 Track09.wav

     Spitzenpegel 97.7 %
     Auslesegeschwindigkeit 32.3 X
     Track Qualität 100.0 %
     Kopie CRC BCA9DB82
     Kopie OK

Track 10

     Dateiname C:\Users\mogens\Desktop\Andrea Schoeder\Where The Wild Oceans End\10 Track10.wav

     Spitzenpegel 97.7 %
     Auslesegeschwindigkeit 31.6 X
     Track Qualität 100.0 %
     Kopie CRC C21E6700
     Kopie OK

Keine Fehler aufgetreten

Ende des Statusreports
Код:

-----------------------

DON'T MODIFY THIS FILE

-----------------------

PERFORMER: auCDtect Task Manager, ver. 1.6.0 RC1 build 1.6.0.1
Copyright (c) 2008-2010 y-soft. All rights reserved
http://y-soft.org

ANALYZER: auCDtect: CD records authenticity detector, version 0.8.2
Copyright (c) 2004 Oleg Berngardt. All rights reserved.
Copyright (c) 2004 Alexander Djourik. All rights reserved.

FILE: 10 - Walk Into the Silence.flac
  Size: 25280964 Hash: 73D0144BDE2A5163C722FC257BED1CDD Accuracy: -m0
  Conclusion: CDDA 100%
  Signature: 2200ED99893BD6A4C3AE30AC142720BE26AE654D
FILE: 09 - Summer Came to Say Goodbye.flac
  Size: 24122731 Hash: FF125A011028FF173F8AB996B076674F Accuracy: -m0
  Conclusion: CDDA 100%
  Signature: 4D0F91D8BEEFBA2DD9E14C80036DC12EB86F0CF4
FILE: 08 - The Rattlesnake.flac
  Size: 21830269 Hash: C7994D10AE014B9F02A37A9EA839D557 Accuracy: -m0
  Conclusion: CDDA 100%
  Signature: 0947E24012FCEA48D6C5019862F3E53A90B44979
FILE: 07 - Where the Wild Oceans End.flac
  Size: 26460498 Hash: 86E278A7F5D64E1A3F52DE2CD2CA4128 Accuracy: -m0
  Conclusion: CDDA 100%
  Signature: CBA1A7050C782CD39FE10BF8C63EC083B2BDBE9E
FILE: 06 - The Spider.flac
  Size: 26895255 Hash: 72A32617AD6FF7BAB2A5DCEEADDF8CAA Accuracy: -m0
  Conclusion: CDDA 100%
  Signature: 406C3CABA0A8B3601AFA68A91BB793A4B78FCE27
FILE: 05 - Fireland.flac
  Size: 24219072 Hash: 9F8F16A286EDB75BBE81207E3DCBC8DE Accuracy: -m0
  Conclusion: CDDA 100%
  Signature: 028F1EEA4B8EC7673D4541D075B0C2026125FC85
FILE: 04 - Helden.flac
  Size: 34539709 Hash: 49459CCE47A445FE06F8B6E407A93BA0 Accuracy: -m0
  Conclusion: CDDA 100%
  Signature: 488EA450BF9BFEB3400357A7F810A9DF75E04510
FILE: 03 - Until the End.flac
  Size: 25500118 Hash: FB3944B287FF0D7878E413C3271AABE6 Accuracy: -m0
  Conclusion: CDDA 100%
  Signature: F371ECA12EA27CB4373F4B5F94FB41FFDE89A05E
FILE: 02 - Ghosts of Berlin.flac
  Size: 31568157 Hash: 1E7DA73B16455E5914CEDFEB44C8283C Accuracy: -m0
  Conclusion: CDDA 100%
  Signature: ED1F54F9D8A413004B6C9AEFE92CFC3161969B12
FILE: 01 - Dead Man's Eyes.flac
  Size: 24444391 Hash: 127E1592BC1A571F6BA9D40090DD9090 Accuracy: -m0
  Conclusion: CDDA 100%
  Signature: 9FD6B800A6543028A825D8D555FE8AE63826B976
Код:
REM GENRE Alternative Rock, Indie
REM DATE 2014
PERFORMER "Andrea Schroeder"
TITLE "Where the Wild Oceans End"
FILE "01 - Dead Man's Eyes.flac" WAVE
  TRACK 01 AUDIO
    TITLE "Dead Man's Eyes"
    PERFORMER "Andrea Schroeder"
    INDEX 01 00:00:00
FILE "02 - Ghosts of Berlin.flac" WAVE
  TRACK 02 AUDIO
    TITLE "Ghosts of Berlin"
    PERFORMER "Andrea Schroeder"
    INDEX 01 00:00:00
FILE "03 - Until the End.flac" WAVE
  TRACK 03 AUDIO
    TITLE "Until the End"
    PERFORMER "Andrea Schroeder"
    INDEX 01 00:00:00
FILE "04 - Helden.flac" WAVE
  TRACK 04 AUDIO
    TITLE "Helden"
    PERFORMER "Andrea Schroeder"
    INDEX 01 00:00:00
FILE "05 - Fireland.flac" WAVE
  TRACK 05 AUDIO
    TITLE "Fireland"
    PERFORMER "Andrea Schroeder"
    INDEX 01 00:00:00
FILE "06 - The Spider.flac" WAVE
  TRACK 06 AUDIO
    TITLE "The Spider"
    PERFORMER "Andrea Schroeder"
    INDEX 01 00:00:00
FILE "07 - Where the Wild Oceans End.flac" WAVE
  TRACK 07 AUDIO
    TITLE "Where the Wild Oceans End"
    PERFORMER "Andrea Schroeder"
    INDEX 01 00:00:00
FILE "08 - The Rattlesnake.flac" WAVE
  TRACK 08 AUDIO
    TITLE "The Rattlesnake"
    PERFORMER "Andrea Schroeder"
    INDEX 01 00:00:00
FILE "09 - Summer Came to Say Goodbye.flac" WAVE
  TRACK 09 AUDIO
    TITLE "Summer Came to Say Goodbye"
    PERFORMER "Andrea Schroeder"
    INDEX 01 00:00:00
FILE "10 - Walk Into the Silence.flac" WAVE
  TRACK 10 AUDIO
    TITLE "Walk Into the Silence"
    PERFORMER "Andrea Schroeder"
    INDEX 01 00:00:00


Время раздачи: До 5 сидов
Audio Puffer abgeschaltet : Nein
Benutze C2 Fehlerinformationen : Ja
Kombinierte Lese/Schreiboffset Korrektur : 0


 Возможно вытеснение рипом с правильными настройками без согласия релизера.
Bigbeer
[NNM-Club.me]_Andrea Schroeder - Where The Wild Oceans End - 2014 - FLAC.torrent
 Торрент: Платиновая раздача  Зарегистрирован
 
Скачать


Примагнититься
 Зарегистрирован:   18 Фев 2014 11:47:57
 Размер:   253 MB  (
 Рейтинг:   4.7 (Голосов: 11)
 Поблагодарили:   44
 Проверка:   Оформление проверено модератором 18 Фев 2014 12:47:01
Как cкачать  ·  Как раздать  ·  Правильно оформить  ·  Поднять ратио!  
Yuridar
 
Стаж: 6 лет 4 мес.
Сообщений: 759
Ratio: 11.542
Раздал: 4.523 TB
Поблагодарили: 5569
100%
Откуда: vk.com / id342071221
witch.png
Голос просто завораживает.Очень редкий случай-все три альбома(что нашёл) целиком-в коллекцию.Есть у неё замечательная песня,не входящая в эти альбомы-Kisses for my president.
Показать сообщения:   
Начать новую тему   Ответить на тему    Торрент-трекер NNM-Club -> Rock, Alternative, Punk, Metal -> Alternative, Punk (Lossless) Часовой пояс: GMT + 3
Страница 1 из 1