Классический форум-трекер
canvas not supported
Нас вместе: 4 234 131

Зеленый театр в Земфире. Фильм-концерт (DVDRip) 2008


Страницы:   Пред.  1, 2 
 
RSS
Начать новую тему   Ответить на тему    Торрент-трекер NNM-Club -> Театр и Музыкальное видео -> Концерты (SD)
Автор Сообщение
ithome ®
Стаж: 17 лет 3 мес.
Сообщений: 1067
Ratio: 5.423
Поблагодарили: 5505
100%
Откуда: Глухое Подмосковье...
ussr.gif
Зеленый театр в Земфире. Фильм-концерт (DVDRip) 2008
Год выпуска: 2008
Жанр: Концерт
Описание :
"Зеленый театр в Земфире" — первый в истории отечественного кинопроката полнометражный музыкальный фильм, построенный на видеоматериале одного концерта. Это первый опыт Ренаты Литвиновой в музыкальном кино. Актриса и режиссер создала не просто фильм-концерт, но рельефный, неравнодушный портрет главной российской певицы последнего десятилетия. Помимо филигранно четко смонтированных музыкальных номеров, в фильме звучат монологи Земфиры. Никогда еще Земфира не была перед объективом такой откровенной и одновременно амбициозной. Картина будет демонстрироваться только в цифровых залах.
Рeжиссер: Рената Литвинова.
Треклист:
01.Почему
02.ПММЛ
03.Любовь как случайная смерть
04.Лондон
05.Траффик
06.Ракеты
07.Доказано
08.Созрела
09.Брызги
10.Анечка
11.Во мне
12.Мальчик
13.Шкалят датчики
14.Хочешь?
15.Ариведерчи
Продолжительность: 01:15:36
Видео: XviD, 2307 kbps, 720x400
Аудио: AC-3 5.1, 448 kbps
Код: выделить все

       Полное имя                               : K:\UpRG-Концерты\Zelyniy.teatr.v.Zemfire.2008.XviD.DVDRip.avi
Формат                                   : AVI
Формат/Информация                        : Audio Video Interleave
Размер файла                             : 1,46 Гбайт
Продолжительность                        : 1 ч. 15 м.
Общий поток                              : 2762 Кбит/сек
Программа кодирования                    : VirtualDubMod 1.5.4.1 (build 2178/release)
Библиотека кодирования                   : VirtualDubMod build 2178/release

Видео
Идентификатор                            : 0
Формат                                   : MPEG-4 Visual
Профиль формата                          : Advanced Simple@L5
Параметр BVOP формата                    : 1
Параметр QPel формата                    : Нет
Параметр GMC формата                     : Без точки перехода
Параметр матрицы формата                 : Выборочная
Идентификатор кодека                     : XVID
Идентификатор кодека/Подсказка           : XviD
Продолжительность                        : 1 ч. 15 м.
Битрейт                                  : 2307 Кбит/сек
Ширина                                   : 720 пикселей
Высота                                   : 400 пикселей
Соотношение сторон                       : 16:9
Частота кадров                           : 25,000 кадров/сек
Цветовое пространство                    : YUV
Субдискретизация насыщенности            : 4:2:0
Битовая глубина                          : 8 бит
Тип развёртки                            : Прогрессивная
Метод сжатия                             : С потерями
Бит/(Пиксели*Кадры)                      : 0.320
Размер потока                            : 1,22 Гбайт (84%)
Библиотека кодирования                   : XviD 1.2.0.dev47 (UTC 2006-11-01)

Аудио
Идентификатор                            : 1
Формат                                   : AC-3
Формат/Информация                        : Audio Coding 3
Расширение режима                        : ME (music and effects)
Параметр Endianness формата              : Big
Идентификатор кодека                     : 2000
Продолжительность                        : 1 ч. 15 м.
Вид битрейта                             : Постоянный
Битрейт                                  : 448 Кбит/сек
Каналы                                   : 6 каналов
Расположение каналов                     : Front: L C R, Side: L R, LFE
Частота                                  : 48,0 КГц
Битовая глубина                          : 16 бит
Метод сжатия                             : С потерями
Размер потока                            : 242 Мбайт (16%)
Выравнивание                             : Разделение по промежуткам
Продолжительность промежутка             : 96  мс. (2,40 видеокадра)
Время предзагрузки промежутка            : 96  мс.         
Скриншоты:
.
[NNMClub.to]_Zelyniy.teatr.v.Zemfire.2008.XviD.DVDRip_[nnm-club.ru].torrent
 Торрент: Платиновая раздача  Зарегистрирован
 
Скачать


Примагнититься
 Зарегистрирован:   19 Фев 2022 15:03:12
 Размер:   1.46 GB  (
 Рейтинг:   4.7 (Голосов: 58)
 Поблагодарили:   196
 Проверка:   Оформление проверено модератором 19 Фев 2022 15:03:18
Как cкачать  ·  Как раздать  ·  Правильно оформить  ·  Поднять ратио!  
pericl
Куратор форумов
Добрый самаритянин
Стаж: 13 лет 10 мес.
Сообщений: 5983
Ratio: 353.826
100%
confederate.gif
Реставрация

_________________

А жизнь - только слово, Есть лишь любовь и есть смерть... Эй,а кто будет петь, если все будут спать? Смерть стоит того, чтобы жить, А любовь стоит того, чтобы ждать...
Показать сообщения:   
Начать новую тему   Ответить на тему    Торрент-трекер NNM-Club -> Театр и Музыкальное видео -> Концерты (SD) Часовой пояс: GMT + 3
Страницы:   Пред.  1, 2
Страница 2 из 2