Классический форум-трекер
canvas not supported
Нас вместе: 4 166 418

Anette Olzon - Shine (2014) [FLAC|Lossless]<Symphonic Rock>


 
 
RSS
Начать новую тему   Ответить на тему    Торрент-трекер NNM-Club -> Архив торрентов -> Архив Музыки
Автор Сообщение
_cynic_ ®
Стаж: 13 лет 1 мес.
Сообщений: 1603
Ratio: 1114.82
Поблагодарили: 71825
100%
Откуда: 61
pirates.png
Anette Olzon - Shine (2014)
Год: 2014
Жанр: Symphonic Rock
Продолжительность: 00:38:05
Лейбл: Edel Records
№ по каталогу: 0209328ERE
Страна: Finland
Кодек: FLAC
Тип рипа: image+.cue
Битрейт: Lossless
Источник: Gromilo
Треклист:

01. Like A Show Inside My Head
02. Shine
03. Floating
04. Lies
05. Invincible
06. Hear Me
07. Falling
08. Moving Away
09. One Million Faces
10. Watching Me From Afar
Код:

Exact Audio Copy V1.0 beta 3 from 29. August 2011

EAC extraction logfile from 28. March 2014, 15:46

Anette Olzon / Shine

Used drive  : HP      DVD Writer 1170d   Adapter: 0  ID: 0

Read mode               : Secure
Utilize accurate stream : Yes
Defeat audio cache      : Yes
Make use of C2 pointers : No

Read offset correction                      : 6
Overread into Lead-In and Lead-Out          : No
Fill up missing offset samples with silence : Yes
Delete leading and trailing silent blocks   : No
Null samples used in CRC calculations       : Yes
Used interface                              : Native Win32 interface for Win NT & 2000

Used output format              : User Defined Encoder
Selected bitrate                : 768 kBit/s
Quality                         : High
Add ID3 tag                     : No
Command line compressor         : C:\Program Files (x86)\Exact Audio Copy\FLAC\FLAC.EXE
Additional command line options : -V -8 -T "Date=%year%" -T "Genre=%genre%" -T"COMMENT=Ripped by Ungern666" -8 -V %source%

TOC of the extracted CD

     Track |   Start  |  Length  | Start sector | End sector
    ---------------------------------------------------------
        1  |  0:00.00 |  3:37.68 |         0    |    16342
        2  |  3:37.68 |  3:26.66 |     16343    |    31858
        3  |  7:04.59 |  3:07.13 |     31859    |    45896
        4  | 10:11.72 |  5:01.21 |     45897    |    68492
        5  | 15:13.18 |  3:16.45 |     68493    |    83237
        6  | 18:29.63 |  3:03.45 |     83238    |    97007
        7  | 21:33.33 |  4:29.28 |     97008    |   117210
        8  | 26:02.61 |  4:56.12 |    117211    |   139422
        9  | 30:58.73 |  2:53.31 |    139423    |   152428
       10  | 33:52.29 |  4:12.53 |    152429    |   171381

Range status and errors

Selected range

     Filename C:\EAC\Ungern666\Anette Olzon - Shine.wav

     Peak level 100.0 %
     Extraction speed 5.5 X
     Range quality 100.0 %
     Test CRC A2977476
     Copy CRC A2977476
     Copy OK

No errors occurred

AccurateRip summary

Track  1  not present in database
Track  2  not present in database
Track  3  not present in database
Track  4  not present in database
Track  5  not present in database
Track  6  not present in database
Track  7  not present in database
Track  8  not present in database
Track  9  not present in database
Track 10  not present in database

None of the tracks are present in the AccurateRip database

End of status report

==== Log checksum 8A4AB49130660A8331EE9A394254FDF6604BFE5EEA322A73E39E2CFE5B7DAFD2 ====

Код:

-----------------------

DON'T MODIFY THIS FILE

-----------------------

PERFORMER: auCDtect Task Manager, ver. 1.6.0 RC1 build 1.6.0.1
Copyright (c) 2008-2010 y-soft. All rights reserved
http://y-soft.org

ANALYZER: auCDtect: CD records authenticity detector, version 0.8.2
Copyright (c) 2004 Oleg Berngardt. All rights reserved.
Copyright (c) 2004 Alexander Djourik. All rights reserved.

FILE: Anette Olzon - Shine.flac
  Size: 254121344 Hash: F7F7C568045C615F7C37F7A9CB3F6EAB Accuracy: -m0
  Conclusion: CDDA 99%
  Signature: 1D85AE0C25340BB14A7DB0D6F90D6CD05EA18A46

Время раздачи: с 20:00 до 22:00


Поглощение/вытеснение
Только с согласия релизера

Bigbeer
[NNM-Club.me]_Anette Olzon - Shine (2014).torrent
 Торрент: Платиновая раздача  Зарегистрирован
 
Скачать


Примагнититься
 Зарегистрирован:   28 Мар 2014 20:50:51
 Размер:   279 MB  (
 Рейтинг:   4.4 (Голосов: 16)
 Поблагодарили:   64
 Проверка:   Оформление проверено модератором 29 Мар 2014 12:55:58
Как cкачать  ·  Как раздать  ·  Правильно оформить  ·  Поднять ратио!  
Топик был перенесен из форума Rock (Lossless) в форум Архив Музыки

Причина переноса: Длительное отсутствие сида на протяжении более 6 месяцев.

Исправил релиз - напиши ЛС chaosman1986, дав ссылку на релиз.
Если нет ответа 24 часа - нажми на кнопку "Обратить внимание модераторов".
Показать сообщения:   
Начать новую тему   Ответить на тему    Торрент-трекер NNM-Club -> Архив торрентов -> Архив Музыки Часовой пояс: GMT + 3
Страница 1 из 1