Классический форум-трекер
canvas not supported
Нас вместе: 4 232 226

Alexandre Desplat - Операция «Арго» / Argo (2012) [AAC|WEB-DL|256 кб/с]<Score>


 
 
RSS
Начать новую тему   Ответить на тему    Торрент-трекер NNM-Club -> Аудио и Видео -> Музыка (AAC)
Автор Сообщение
igoryek ®
Стаж: 15 лет 2 мес.
Сообщений: 347
Ratio: 45.032
Поблагодарили: 23621
100%
Alexandre Desplat - Операция «Арго» / Argo (2012)
Год: 2012
Жанр: Score
Продолжительность: 00:58:46

Кодек: AAC
Битрейт: 256 кб/с
Тип битрейта: VBR

Треклист:
01 - Argo
02 - A Spy in Tehran
03 - Scent of Death
04 - The Mission
05 - Hotel Messages
06 - Held Up By Guards
07 - The Business Card
08 - Breaking Through the Gates
09 - Tony Grills the Six
10 - The Six Are Missing
11 - Sweatshop
12 - Drive to the Airport
13 - Missing Home
14 - Istanbul - The Blue Mosque
15 - Bazaar
16 - Cleared Iranian Airspace
17 - Hace Tuto Guagua (performed by Familion)
Код:

General
Complete name                            : D:\Sound\Music\Soundtracks\Argo\Alexandre Desplat - Argo - Score (2012) [AAC]\01 Argo.m4a
Format                                   : MPEG-4
Format profile                           : Apple audio with iTunes info
Codec ID                                 : M4A
File size                                : 7.42 MiB
Duration                                 : 3mn 38s
Overall bit rate mode                    : Variable
Overall bit rate                         : 285 Kbps
Album                                    : Argo (Original Motion Picture Soundtrack)
Album/Performer                          : Alexandre Desplat
Part/Position                            : 1
Part/Total                               : 1
Track name                               : Argo
Track name/Position                      : 1
Track name/Total                         : 17
Performer                                : Alexandre Desplat
Genre                                    : Soundtrack
ContentType                              : Music
Recorded date                            : UTC 2012-10-09 07:00:00
Tagged date                              : UTC 2013-02-07 13:10:10
Copyright                                : ℗ 2012 WaterTower Music
Cover                                    : Yes
Rating                                   : None
AppleStoreAccount                        : zaojiancun8@hotmail.com
AppleStoreCatalogID                      : 565634734
AlbumTitleID                             : 267126119
PlayListID                               : 565634425
GenreID                                  : 1169
AppleStoreCountry                        : United States
PurchaseDate                             : 2013-02-07 05:07:19
Vendor                                   : WarnerBrosEnt:isrc:USNLR1200411
iTunMOVI                                 : <?xml version="1.0" encoding="UTF-8"?> / <!DOCTYPE plist PUBLIC "-//Apple//DTD PLIST 1.0//EN" "http://www.apple.com/DTDs/PropertyList-1.0.dtd"> / <plist version="1.0"> / <dict> /   <key>asset-info</key> /   <dict> /     <key>file-size</key> /     <integer>7781906</integer> /     <key>flavor</key> /     <string>2:256</string> /   </dict> / </dict> / </plist>

Audio
ID                                       : 1
Format                                   : AAC
Format/Info                              : Advanced Audio Codec
Format profile                           : LC
Codec ID                                 : 40
Duration                                 : 3mn 38s
Bit rate mode                            : Variable
Bit rate                                 : 256 Kbps
Maximum bit rate                         : 391 Kbps
Channel(s)                               : 2 channels
Channel positions                        : Front: L R
Sampling rate                            : 44.1 KHz
Compression mode                         : Lossy
Stream size                              : 6.85 MiB (92%)
Language                                 : English
Tagged date                              : UTC 2013-02-07 13:10:10

General
Complete name                            : D:\Sound\Music\Soundtracks\Argo\Alexandre Desplat - Argo - Score (2012) [AAC]\02 A Spy In Tehran.m4a
Format                                   : MPEG-4
Format profile                           : Apple audio with iTunes info
Codec ID                                 : M4A
File size                                : 9.18 MiB
Duration                                 : 4mn 18s
Overall bit rate mode                    : Variable
Overall bit rate                         : 298 Kbps
Album                                    : Argo (Original Motion Picture Soundtrack)
Album/Performer                          : Alexandre Desplat
Part/Position                            : 1
Part/Total                               : 1
Track name                               : A Spy In Tehran
Track name/Position                      : 2
Track name/Total                         : 17
Performer                                : Alexandre Desplat
Genre                                    : Soundtrack
ContentType                              : Music
Recorded date                            : UTC 2012-10-09 07:00:00
Tagged date                              : UTC 2013-02-07 13:12:12
Copyright                                : ℗ 2012 WaterTower Music
Cover                                    : Yes
Rating                                   : None
AppleStoreAccount                        : zaojiancun8@hotmail.com
AppleStoreCatalogID                      : 565634735
AlbumTitleID                             : 267126119
PlayListID                               : 565634425
GenreID                                  : 1169
AppleStoreCountry                        : United States
PurchaseDate                             : 2013-02-07 05:07:19
Title/Sort                               : Spy In Tehran
Vendor                                   : WarnerBrosEnt:isrc:USNLR1200412
iTunMOVI                                 : <?xml version="1.0" encoding="UTF-8"?> / <!DOCTYPE plist PUBLIC "-//Apple//DTD PLIST 1.0//EN" "http://www.apple.com/DTDs/PropertyList-1.0.dtd"> / <plist version="1.0"> / <dict> /   <key>asset-info</key> /   <dict> /     <key>file-size</key> /     <integer>9628043</integer> /     <key>flavor</key> /     <string>2:256</string> /   </dict> / </dict> / </plist>

Audio
ID                                       : 1
Format                                   : AAC
Format/Info                              : Advanced Audio Codec
Format profile                           : LC
Codec ID                                 : 40
Duration                                 : 4mn 18s
Bit rate mode                            : Variable
Bit rate                                 : 279 Kbps
Nominal bit rate                         : 256 Kbps
Maximum bit rate                         : 325 Kbps
Channel(s)                               : 2 channels
Channel positions                        : Front: L R
Sampling rate                            : 44.1 KHz
Compression mode                         : Lossy
Stream size                              : 8.61 MiB (94%)
Language                                 : English
Tagged date                              : UTC 2013-02-07 13:12:12

General
Complete name                            : D:\Sound\Music\Soundtracks\Argo\Alexandre Desplat - Argo - Score (2012) [AAC]\03 Scent of Death.m4a
Format                                   : MPEG-4
Format profile                           : Apple audio with iTunes info
Codec ID                                 : M4A
File size                                : 7.34 MiB
Duration                                 : 3mn 26s
Overall bit rate mode                    : Variable
Overall bit rate                         : 299 Kbps
Album                                    : Argo (Original Motion Picture Soundtrack)
Album/Performer                          : Alexandre Desplat
Part/Position                            : 1
Part/Total                               : 1
Track name                               : Scent of Death
Track name/Position                      : 3
Track name/Total                         : 17
Performer                                : Alexandre Desplat
Genre                                    : Soundtrack
ContentType                              : Music
Recorded date                            : UTC 2012-10-09 07:00:00
Tagged date                              : UTC 2013-02-07 13:12:13
Copyright                                : ℗ 2012 WaterTower Music
Cover                                    : Yes
Rating                                   : None
AppleStoreAccount                        : zaojiancun8@hotmail.com
AppleStoreCatalogID                      : 565634736
AlbumTitleID                             : 267126119
PlayListID                               : 565634425
GenreID                                  : 1169
AppleStoreCountry                        : United States
PurchaseDate                             : 2013-02-07 05:07:19
Vendor                                   : WarnerBrosEnt:isrc:USNLR1200413
iTunMOVI                                 : <?xml version="1.0" encoding="UTF-8"?> / <!DOCTYPE plist PUBLIC "-//Apple//DTD PLIST 1.0//EN" "http://www.apple.com/DTDs/PropertyList-1.0.dtd"> / <plist version="1.0"> / <dict> /   <key>asset-info</key> /   <dict> /     <key>file-size</key> /     <integer>7692340</integer> /     <key>flavor</key> /     <string>2:256</string> /   </dict> / </dict> / </plist>

Audio
ID                                       : 1
Format                                   : AAC
Format/Info                              : Advanced Audio Codec
Format profile                           : LC
Codec ID                                 : 40
Duration                                 : 3mn 26s
Bit rate mode                            : Variable
Bit rate                                 : 276 Kbps
Nominal bit rate                         : 256 Kbps
Maximum bit rate                         : 303 Kbps
Channel(s)                               : 2 channels
Channel positions                        : Front: L R
Sampling rate                            : 44.1 KHz
Compression mode                         : Lossy
Stream size                              : 6.77 MiB (92%)
Language                                 : English
Tagged date                              : UTC 2013-02-07 13:12:13

General
Complete name                            : D:\Sound\Music\Soundtracks\Argo\Alexandre Desplat - Argo - Score (2012) [AAC]\04 The Mission.m4a
Format                                   : MPEG-4
Format profile                           : Apple audio with iTunes info
Codec ID                                 : M4A
File size                                : 4.50 MiB
Duration                                 : 2mn 7s
Overall bit rate mode                    : Variable
Overall bit rate                         : 296 Kbps
Album                                    : Argo (Original Motion Picture Soundtrack)
Album/Performer                          : Alexandre Desplat
Part/Position                            : 1
Part/Total                               : 1
Track name                               : The Mission
Track name/Position                      : 4
Track name/Total                         : 17
Performer                                : Alexandre Desplat
Genre                                    : Soundtrack
ContentType                              : Music
Recorded date                            : UTC 2012-10-09 07:00:00
Encoded date                             : UTC 1977-03-21 11:45:16
Tagged date                              : UTC 2013-02-07 13:13:11
Copyright                                : ℗ 2012 WaterTower Music
Cover                                    : Yes
Rating                                   : None
AppleStoreAccount                        : zaojiancun8@hotmail.com
AppleStoreCatalogID                      : 565634737
AlbumTitleID                             : 267126119
PlayListID                               : 565634425
GenreID                                  : 1169
AppleStoreCountry                        : United States
PurchaseDate                             : 2013-02-07 05:07:19
Title/Sort                               : Mission
Vendor                                   : WarnerBrosEnt:isrc:USNLR1200414
iTunMOVI                                 : <?xml version="1.0" encoding="UTF-8"?> / <!DOCTYPE plist PUBLIC "-//Apple//DTD PLIST 1.0//EN" "http://www.apple.com/DTDs/PropertyList-1.0.dtd"> / <plist version="1.0"> / <dict> /   <key>asset-info</key> /   <dict> /     <key>file-size</key> /     <integer>4721582</integer> /     <key>flavor</key> /     <string>2:256</string> /   </dict> / </dict> / </plist>

Audio
ID                                       : 1
Format                                   : AAC
Format/Info                              : Advanced Audio Codec
Format profile                           : LC
Codec ID                                 : 40
Duration                                 : 2mn 7s
Bit rate mode                            : Variable
Bit rate                                 : 256 Kbps
Maximum bit rate                         : 299 Kbps
Channel(s)                               : 2 channels
Channel positions                        : Front: L R
Sampling rate                            : 44.1 KHz
Compression mode                         : Lossy
Stream size                              : 3.95 MiB (88%)
Language                                 : English
Encoded date                             : UTC 1977-03-21 11:45:16
Tagged date                              : UTC 2013-02-07 13:13:11

General
Complete name                            : D:\Sound\Music\Soundtracks\Argo\Alexandre Desplat - Argo - Score (2012) [AAC]\05 Hotel Messages.m4a
Format                                   : MPEG-4
Format profile                           : Apple audio with iTunes info
Codec ID                                 : M4A
File size                                : 4.54 MiB
Duration                                 : 2mn 3s
Overall bit rate mode                    : Variable
Overall bit rate                         : 308 Kbps
Album                                    : Argo (Original Motion Picture Soundtrack)
Album/Performer                          : Alexandre Desplat
Part/Position                            : 1
Part/Total                               : 1
Track name                               : Hotel Messages
Track name/Position                      : 5
Track name/Total                         : 17
Performer                                : Alexandre Desplat
Genre                                    : Soundtrack
ContentType                              : Music
Recorded date                            : UTC 2012-10-09 07:00:00
Encoded date                             : UTC 1985-09-22 09:09:32
Tagged date                              : UTC 2013-02-07 13:12:56
Copyright                                : ℗ 2012 WaterTower Music
Cover                                    : Yes
Rating                                   : None
AppleStoreAccount                        : zaojiancun8@hotmail.com
AppleStoreCatalogID                      : 565634738
AlbumTitleID                             : 267126119
PlayListID                               : 565634425
GenreID                                  : 1169
AppleStoreCountry                        : United States
PurchaseDate                             : 2013-02-07 05:07:19
Vendor                                   : WarnerBrosEnt:isrc:USNLR1200415
iTunMOVI                                 : <?xml version="1.0" encoding="UTF-8"?> / <!DOCTYPE plist PUBLIC "-//Apple//DTD PLIST 1.0//EN" "http://www.apple.com/DTDs/PropertyList-1.0.dtd"> / <plist version="1.0"> / <dict> /   <key>asset-info</key> /   <dict> /     <key>file-size</key> /     <integer>4762077</integer> /     <key>flavor</key> /     <string>2:256</string> /   </dict> / </dict> / </plist>

Audio
ID                                       : 1
Format                                   : AAC
Format/Info                              : Advanced Audio Codec
Format profile                           : LC
Codec ID                                 : 40
Duration                                 : 2mn 3s
Bit rate mode                            : Variable
Bit rate                                 : 270 Kbps
Nominal bit rate                         : 256 Kbps
Maximum bit rate                         : 330 Kbps
Channel(s)                               : 2 channels
Channel positions                        : Front: L R
Sampling rate                            : 44.1 KHz
Compression mode                         : Lossy
Stream size                              : 3.99 MiB (88%)
Language                                 : English
Encoded date                             : UTC 1985-09-22 09:09:32
Tagged date                              : UTC 2013-02-07 13:12:56

General
Complete name                            : D:\Sound\Music\Soundtracks\Argo\Alexandre Desplat - Argo - Score (2012) [AAC]\06 Held Up By Guards.m4a
Format                                   : MPEG-4
Format profile                           : Apple audio with iTunes info
Codec ID                                 : M4A
File size                                : 11.1 MiB
Duration                                 : 5mn 31s
Overall bit rate mode                    : Variable
Overall bit rate                         : 280 Kbps
Album                                    : Argo (Original Motion Picture Soundtrack)
Album/Performer                          : Alexandre Desplat
Part/Position                            : 1
Part/Total                               : 1
Track name                               : Held Up By Guards
Track name/Position                      : 6
Track name/Total                         : 17
Performer                                : Alexandre Desplat
Genre                                    : Soundtrack
ContentType                              : Music
Recorded date                            : UTC 2012-10-09 07:00:00
Encoded date                             : UTC 2004-05-01 16:58:52
Tagged date                              : UTC 2013-02-07 13:13:12
Copyright                                : ℗ 2012 WaterTower Music
Cover                                    : Yes
Rating                                   : None
AppleStoreAccount                        : zaojiancun8@hotmail.com
AppleStoreCatalogID                      : 565634739
AlbumTitleID                             : 267126119
PlayListID                               : 565634425
GenreID                                  : 1169
AppleStoreCountry                        : United States
PurchaseDate                             : 2013-02-07 05:07:19
Vendor                                   : WarnerBrosEnt:isrc:USNLR1200416
iTunMOVI                                 : <?xml version="1.0" encoding="UTF-8"?> / <!DOCTYPE plist PUBLIC "-//Apple//DTD PLIST 1.0//EN" "http://www.apple.com/DTDs/PropertyList-1.0.dtd"> / <plist version="1.0"> / <dict> /   <key>asset-info</key> /   <dict> /     <key>file-size</key> /     <integer>11626178</integer> /     <key>flavor</key> /     <string>2:256</string> /   </dict> / </dict> / </plist>

Audio
ID                                       : 1
Format                                   : AAC
Format/Info                              : Advanced Audio Codec
Format profile                           : LC
Codec ID                                 : 40
Duration                                 : 5mn 31s
Bit rate mode                            : Variable
Bit rate                                 : 256 Kbps
Maximum bit rate                         : 311 Kbps
Channel(s)                               : 2 channels
Channel positions                        : Front: L R
Sampling rate                            : 44.1 KHz
Compression mode                         : Lossy
Stream size                              : 10.5 MiB (95%)
Language                                 : English
Encoded date                             : UTC 2004-05-01 16:58:52
Tagged date                              : UTC 2013-02-07 13:13:12

General
Complete name                            : D:\Sound\Music\Soundtracks\Argo\Alexandre Desplat - Argo - Score (2012) [AAC]\07 The Business Card.m4a
Format                                   : MPEG-4
Format profile                           : Apple audio with iTunes info
Codec ID                                 : M4A
File size                                : 6.14 MiB
Duration                                 : 2mn 55s
Overall bit rate mode                    : Variable
Overall bit rate                         : 293 Kbps
Album                                    : Argo (Original Motion Picture Soundtrack)
Album/Performer                          : Alexandre Desplat
Part/Position                            : 1
Part/Total                               : 1
Track name                               : The Business Card
Track name/Position                      : 7
Track name/Total                         : 17
Performer                                : Alexandre Desplat
Genre                                    : Soundtrack
ContentType                              : Music
Recorded date                            : UTC 2012-10-09 07:00:00
Encoded date                             : UTC 2016-01-11 16:24:44
Tagged date                              : UTC 2013-02-07 13:13:33
Copyright                                : ℗ 2012 WaterTower Music
Cover                                    : Yes
Rating                                   : None
AppleStoreAccount                        : zaojiancun8@hotmail.com
AppleStoreCatalogID                      : 565634740
AlbumTitleID                             : 267126119
PlayListID                               : 565634425
GenreID                                  : 1169
AppleStoreCountry                        : United States
PurchaseDate                             : 2013-02-07 05:07:19
Title/Sort                               : Business Card
Vendor                                   : WarnerBrosEnt:isrc:USNLR1200417
iTunMOVI                                 : <?xml version="1.0" encoding="UTF-8"?> / <!DOCTYPE plist PUBLIC "-//Apple//DTD PLIST 1.0//EN" "http://www.apple.com/DTDs/PropertyList-1.0.dtd"> / <plist version="1.0"> / <dict> /   <key>asset-info</key> /   <dict> /     <key>file-size</key> /     <integer>6437309</integer> /     <key>flavor</key> /     <string>2:256</string> /   </dict> / </dict> / </plist>

Audio
ID                                       : 1
Format                                   : AAC
Format/Info                              : Advanced Audio Codec
Format profile                           : LC
Codec ID                                 : 40
Duration                                 : 2mn 55s
Bit rate mode                            : Variable
Bit rate                                 : 256 Kbps
Maximum bit rate                         : 303 Kbps
Channel(s)                               : 2 channels
Channel positions                        : Front: L R
Sampling rate                            : 44.1 KHz
Compression mode                         : Lossy
Stream size                              : 5.58 MiB (91%)
Language                                 : English
Encoded date                             : UTC 2016-01-11 16:24:44
Tagged date                              : UTC 2013-02-07 13:13:33

General
Complete name                            : D:\Sound\Music\Soundtracks\Argo\Alexandre Desplat - Argo - Score (2012) [AAC]\08 Breaking Through the Gates.m4a
Format                                   : MPEG-4
Format profile                           : Apple audio with iTunes info
Codec ID                                 : M4A
File size                                : 8.17 MiB
Duration                                 : 3mn 50s
Overall bit rate mode                    : Variable
Overall bit rate                         : 297 Kbps
Album                                    : Argo (Original Motion Picture Soundtrack)
Album/Performer                          : Alexandre Desplat
Part/Position                            : 1
Part/Total                               : 1
Track name                               : Breaking Through the Gates
Track name/Position                      : 8
Track name/Total                         : 17
Performer                                : Alexandre Desplat
Genre                                    : Soundtrack
ContentType                              : Music
Recorded date                            : UTC 2012-10-09 07:00:00
Encoded date                             : UTC 2030-05-20 13:31:56
Tagged date                              : UTC 2013-02-07 13:15:45
Copyright                                : ℗ 2012 WaterTower Music
Cover                                    : Yes
Rating                                   : None
AppleStoreAccount                        : zaojiancun8@hotmail.com
AppleStoreCatalogID                      : 565634741
AlbumTitleID                             : 267126119
PlayListID                               : 565634425
GenreID                                  : 1169
AppleStoreCountry                        : United States
PurchaseDate                             : 2013-02-07 05:07:19
Vendor                                   : WarnerBrosEnt:isrc:USNLR1200418
iTunMOVI                                 : <?xml version="1.0" encoding="UTF-8"?> / <!DOCTYPE plist PUBLIC "-//Apple//DTD PLIST 1.0//EN" "http://www.apple.com/DTDs/PropertyList-1.0.dtd"> / <plist version="1.0"> / <dict> /   <key>asset-info</key> /   <dict> /     <key>file-size</key> /     <integer>8563850</integer> /     <key>flavor</key> /     <string>2:256</string> /   </dict> / </dict> / </plist>

Audio
ID                                       : 1
Format                                   : AAC
Format/Info                              : Advanced Audio Codec
Format profile                           : LC
Codec ID                                 : 40
Duration                                 : 3mn 50s
Bit rate mode                            : Variable
Bit rate                                 : 276 Kbps
Nominal bit rate                         : 256 Kbps
Maximum bit rate                         : 315 Kbps
Channel(s)                               : 2 channels
Channel positions                        : Front: L R
Sampling rate                            : 44.1 KHz
Compression mode                         : Lossy
Stream size                              : 7.60 MiB (93%)
Language                                 : English
Encoded date                             : UTC 2030-05-20 13:31:56
Tagged date                              : UTC 2013-02-07 13:15:45

General
Complete name                            : D:\Sound\Music\Soundtracks\Argo\Alexandre Desplat - Argo - Score (2012) [AAC]\09 Tony Grills the Six.m4a
Format                                   : MPEG-4
Format profile                           : Apple audio with iTunes info
Codec ID                                 : M4A
File size                                : 7.32 MiB
Duration                                 : 3mn 30s
Overall bit rate mode                    : Variable
Overall bit rate                         : 292 Kbps
Album                                    : Argo (Original Motion Picture Soundtrack)
Album/Performer                          : Alexandre Desplat
Part/Position                            : 1
Part/Total                               : 1
Track name                               : Tony Grills the Six
Track name/Position                      : 9
Track name/Total                         : 17
Performer                                : Alexandre Desplat
Genre                                    : Soundtrack
ContentType                              : Music
Recorded date                            : UTC 2012-10-09 07:00:00
Tagged date                              : UTC 2013-02-07 13:14:01
Copyright                                : ℗ 2012 WaterTower Music
Cover                                    : Yes
Rating                                   : None
AppleStoreAccount                        : zaojiancun8@hotmail.com
AppleStoreCatalogID                      : 565634742
AlbumTitleID                             : 267126119
PlayListID                               : 565634425
GenreID                                  : 1169
AppleStoreCountry                        : United States
PurchaseDate                             : 2013-02-07 05:07:19
Vendor                                   : WarnerBrosEnt:isrc:USNLR1200419
iTunMOVI                                 : <?xml version="1.0" encoding="UTF-8"?> / <!DOCTYPE plist PUBLIC "-//Apple//DTD PLIST 1.0//EN" "http://www.apple.com/DTDs/PropertyList-1.0.dtd"> / <plist version="1.0"> / <dict> /   <key>asset-info</key> /   <dict> /     <key>file-size</key> /     <integer>7672277</integer> /     <key>flavor</key> /     <string>2:256</string> /   </dict> / </dict> / </plist>

Audio
ID                                       : 1
Format                                   : AAC
Format/Info                              : Advanced Audio Codec
Format profile                           : LC
Codec ID                                 : 40
Duration                                 : 3mn 30s
Bit rate mode                            : Variable
Bit rate                                 : 256 Kbps
Maximum bit rate                         : 322 Kbps
Channel(s)                               : 2 channels
Channel positions                        : Front: L R
Sampling rate                            : 44.1 KHz
Compression mode                         : Lossy
Stream size                              : 6.75 MiB (92%)
Language                                 : English
Tagged date                              : UTC 2013-02-07 13:14:01

General
Complete name                            : D:\Sound\Music\Soundtracks\Argo\Alexandre Desplat - Argo - Score (2012) [AAC]\10 The Six Are Missing.m4a
Format                                   : MPEG-4
Format profile                           : Apple audio with iTunes info
Codec ID                                 : M4A
File size                                : 7.43 MiB
Duration                                 : 3mn 21s
Overall bit rate mode                    : Variable
Overall bit rate                         : 309 Kbps
Album                                    : Argo (Original Motion Picture Soundtrack)
Album/Performer                          : Alexandre Desplat
Part/Position                            : 1
Part/Total                               : 1
Track name                               : The Six Are Missing
Track name/Position                      : 10
Track name/Total                         : 17
Performer                                : Alexandre Desplat
Genre                                    : Soundtrack
ContentType                              : Music
Recorded date                            : UTC 2012-10-09 07:00:00
Tagged date                              : UTC 2013-02-07 13:14:18
Copyright                                : ℗ 2012 WaterTower Music
Cover                                    : Yes
Rating                                   : None
AppleStoreAccount                        : zaojiancun8@hotmail.com
AppleStoreCatalogID                      : 565634743
AlbumTitleID                             : 267126119
PlayListID                               : 565634425
GenreID                                  : 1169
AppleStoreCountry                        : United States
PurchaseDate                             : 2013-02-07 05:07:19
Title/Sort                               : Six Are Missing
Vendor                                   : WarnerBrosEnt:isrc:USNLR1200420
iTunMOVI                                 : <?xml version="1.0" encoding="UTF-8"?> / <!DOCTYPE plist PUBLIC "-//Apple//DTD PLIST 1.0//EN" "http://www.apple.com/DTDs/PropertyList-1.0.dtd"> / <plist version="1.0"> / <dict> /   <key>asset-info</key> /   <dict> /     <key>file-size</key> /     <integer>7790028</integer> /     <key>flavor</key> /     <string>2:256</string> /   </dict> / </dict> / </plist>

Audio
ID                                       : 1
Format                                   : AAC
Format/Info                              : Advanced Audio Codec
Format profile                           : LC
Codec ID                                 : 40
Duration                                 : 3mn 21s
Bit rate mode                            : Variable
Bit rate                                 : 288 Kbps
Nominal bit rate                         : 256 Kbps
Maximum bit rate                         : 318 Kbps
Channel(s)                               : 2 channels
Channel positions                        : Front: L R
Sampling rate                            : 44.1 KHz
Compression mode                         : Lossy
Stream size                              : 6.86 MiB (92%)
Language                                 : English
Tagged date                              : UTC 2013-02-07 13:14:18

General
Complete name                            : D:\Sound\Music\Soundtracks\Argo\Alexandre Desplat - Argo - Score (2012) [AAC]\11 Sweatshop.m4a
Format                                   : MPEG-4
Format profile                           : Apple audio with iTunes info
Codec ID                                 : M4A
File size                                : 3.36 MiB
Duration                                 : 1mn 31s
Overall bit rate mode                    : Variable
Overall bit rate                         : 306 Kbps
Album                                    : Argo (Original Motion Picture Soundtrack)
Album/Performer                          : Alexandre Desplat
Part/Position                            : 1
Part/Total                               : 1
Track name                               : Sweatshop
Track name/Position                      : 11
Track name/Total                         : 17
Performer                                : Alexandre Desplat
Genre                                    : Soundtrack
ContentType                              : Music
Recorded date                            : UTC 2012-10-09 07:00:00
Tagged date                              : UTC 2013-02-07 13:15:10
Copyright                                : ℗ 2012 WaterTower Music
Cover                                    : Yes
Rating                                   : None
AppleStoreAccount                        : zaojiancun8@hotmail.com
AppleStoreCatalogID                      : 565634744
AlbumTitleID                             : 267126119
PlayListID                               : 565634425
GenreID                                  : 1169
AppleStoreCountry                        : United States
PurchaseDate                             : 2013-02-07 05:07:19
Vendor                                   : WarnerBrosEnt:isrc:USNLR1200421
iTunMOVI                                 : <?xml version="1.0" encoding="UTF-8"?> / <!DOCTYPE plist PUBLIC "-//Apple//DTD PLIST 1.0//EN" "http://www.apple.com/DTDs/PropertyList-1.0.dtd"> / <plist version="1.0"> / <dict> /   <key>asset-info</key> /   <dict> /     <key>file-size</key> /     <integer>3519816</integer> /     <key>flavor</key> /     <string>2:256</string> /   </dict> / </dict> / </plist>

Audio
ID                                       : 1
Format                                   : AAC
Format/Info                              : Advanced Audio Codec
Format profile                           : LC
Codec ID                                 : 40
Duration                                 : 1mn 31s
Bit rate mode                            : Variable
Bit rate                                 : 256 Kbps
Maximum bit rate                         : 309 Kbps
Channel(s)                               : 2 channels
Channel positions                        : Front: L R
Sampling rate                            : 44.1 KHz
Compression mode                         : Lossy
Stream size                              : 2.81 MiB (84%)
Language                                 : English
Tagged date                              : UTC 2013-02-07 13:15:10

General
Complete name                            : D:\Sound\Music\Soundtracks\Argo\Alexandre Desplat - Argo - Score (2012) [AAC]\12 Drive to the Airport.m4a
Format                                   : MPEG-4
Format profile                           : Apple audio with iTunes info
Codec ID                                 : M4A
File size                                : 7.63 MiB
Duration                                 : 3mn 45s
Overall bit rate mode                    : Variable
Overall bit rate                         : 284 Kbps
Album                                    : Argo (Original Motion Picture Soundtrack)
Album/Performer                          : Alexandre Desplat
Part/Position                            : 1
Part/Total                               : 1
Track name                               : Drive to the Airport
Track name/Position                      : 12
Track name/Total                         : 17
Performer                                : Alexandre Desplat
Genre                                    : Soundtrack
ContentType                              : Music
Recorded date                            : UTC 2012-10-09 07:00:00
Tagged date                              : UTC 2013-02-07 13:18:11
Copyright                                : ℗ 2012 WaterTower Music
Cover                                    : Yes
Rating                                   : None
AppleStoreAccount                        : zaojiancun8@hotmail.com
AppleStoreCatalogID                      : 565634745
AlbumTitleID                             : 267126119
PlayListID                               : 565634425
GenreID                                  : 1169
AppleStoreCountry                        : United States
PurchaseDate                             : 2013-02-07 05:07:19
Vendor                                   : WarnerBrosEnt:isrc:USNLR1200422
iTunMOVI                                 : <?xml version="1.0" encoding="UTF-8"?> / <!DOCTYPE plist PUBLIC "-//Apple//DTD PLIST 1.0//EN" "http://www.apple.com/DTDs/PropertyList-1.0.dtd"> / <plist version="1.0"> / <dict> /   <key>asset-info</key> /   <dict> /     <key>file-size</key> /     <integer>8001957</integer> /     <key>flavor</key> /     <string>2:256</string> /   </dict> / </dict> / </plist>

Audio
ID                                       : 1
Format                                   : AAC
Format/Info                              : Advanced Audio Codec
Format profile                           : LC
Codec ID                                 : 40
Duration                                 : 3mn 45s
Bit rate mode                            : Variable
Bit rate                                 : 256 Kbps
Maximum bit rate                         : 319 Kbps
Channel(s)                               : 2 channels
Channel positions                        : Front: L R
Sampling rate                            : 44.1 KHz
Compression mode                         : Lossy
Stream size                              : 7.06 MiB (93%)
Language                                 : English
Tagged date                              : UTC 2013-02-07 13:18:11

General
Complete name                            : D:\Sound\Music\Soundtracks\Argo\Alexandre Desplat - Argo - Score (2012) [AAC]\13 Missing Home.m4a
Format                                   : MPEG-4
Format profile                           : Apple audio with iTunes info
Codec ID                                 : M4A
File size                                : 6.09 MiB
Duration                                 : 3mn 0s
Overall bit rate mode                    : Variable
Overall bit rate                         : 283 Kbps
Album                                    : Argo (Original Motion Picture Soundtrack)
Album/Performer                          : Alexandre Desplat
Part/Position                            : 1
Part/Total                               : 1
Track name                               : Missing Home
Track name/Position                      : 13
Track name/Total                         : 17
Performer                                : Alexandre Desplat
Genre                                    : Soundtrack
ContentType                              : Music
Recorded date                            : UTC 2012-10-09 07:00:00
Tagged date                              : UTC 2013-02-07 13:18:13
Copyright                                : ℗ 2012 WaterTower Music
Cover                                    : Yes
Rating                                   : None
AppleStoreAccount                        : zaojiancun8@hotmail.com
AppleStoreCatalogID                      : 565634746
AlbumTitleID                             : 267126119
PlayListID                               : 565634425
GenreID                                  : 1169
AppleStoreCountry                        : United States
PurchaseDate                             : 2013-02-07 05:07:19
Vendor                                   : WarnerBrosEnt:isrc:USNLR1200423
iTunMOVI                                 : <?xml version="1.0" encoding="UTF-8"?> / <!DOCTYPE plist PUBLIC "-//Apple//DTD PLIST 1.0//EN" "http://www.apple.com/DTDs/PropertyList-1.0.dtd"> / <plist version="1.0"> / <dict> /   <key>asset-info</key> /   <dict> /     <key>file-size</key> /     <integer>6385049</integer> /     <key>flavor</key> /     <string>2:256</string> /   </dict> / </dict> / </plist>

Audio
ID                                       : 1
Format                                   : AAC
Format/Info                              : Advanced Audio Codec
Format profile                           : LC
Codec ID                                 : 40
Duration                                 : 3mn 0s
Bit rate mode                            : Variable
Bit rate                                 : 256 Kbps
Maximum bit rate                         : 312 Kbps
Channel(s)                               : 2 channels
Channel positions                        : Front: L R
Sampling rate                            : 44.1 KHz
Compression mode                         : Lossy
Stream size                              : 5.53 MiB (91%)
Language                                 : English
Tagged date                              : UTC 2013-02-07 13:18:13

General
Complete name                            : D:\Sound\Music\Soundtracks\Argo\Alexandre Desplat - Argo - Score (2012) [AAC]\14 Istanbul (The Blue Mosque).m4a
Format                                   : MPEG-4
Format profile                           : Apple audio with iTunes info
Codec ID                                 : M4A
File size                                : 4.86 MiB
Duration                                 : 2mn 18s
Overall bit rate mode                    : Variable
Overall bit rate                         : 295 Kbps
Album                                    : Argo (Original Motion Picture Soundtrack)
Album/Performer                          : Alexandre Desplat
Part/Position                            : 1
Part/Total                               : 1
Track name                               : Istanbul (The Blue Mosque)
Track name/Position                      : 14
Track name/Total                         : 17
Performer                                : Alexandre Desplat
Genre                                    : Soundtrack
ContentType                              : Music
Recorded date                            : UTC 2012-10-09 07:00:00
Tagged date                              : UTC 2013-02-07 13:16:12
Copyright                                : ℗ 2012 WaterTower Music
Cover                                    : Yes
Rating                                   : None
AppleStoreAccount                        : zaojiancun8@hotmail.com
AppleStoreCatalogID                      : 565634747
AlbumTitleID                             : 267126119
PlayListID                               : 565634425
GenreID                                  : 1169
AppleStoreCountry                        : United States
PurchaseDate                             : 2013-02-07 05:07:19
Vendor                                   : WarnerBrosEnt:isrc:USNLR1200424
iTunMOVI                                 : <?xml version="1.0" encoding="UTF-8"?> / <!DOCTYPE plist PUBLIC "-//Apple//DTD PLIST 1.0//EN" "http://www.apple.com/DTDs/PropertyList-1.0.dtd"> / <plist version="1.0"> / <dict> /   <key>asset-info</key> /   <dict> /     <key>file-size</key> /     <integer>5098213</integer> /     <key>flavor</key> /     <string>2:256</string> /   </dict> / </dict> / </plist>

Audio
ID                                       : 1
Format                                   : AAC
Format/Info                              : Advanced Audio Codec
Format profile                           : LC
Codec ID                                 : 40
Duration                                 : 2mn 18s
Bit rate mode                            : Variable
Bit rate                                 : 256 Kbps
Maximum bit rate                         : 336 Kbps
Channel(s)                               : 2 channels
Channel positions                        : Front: L R
Sampling rate                            : 44.1 KHz
Compression mode                         : Lossy
Stream size                              : 4.31 MiB (89%)
Language                                 : English
Tagged date                              : UTC 2013-02-07 13:16:12

General
Complete name                            : D:\Sound\Music\Soundtracks\Argo\Alexandre Desplat - Argo - Score (2012) [AAC]\15 Bazaar.m4a
Format                                   : MPEG-4
Format profile                           : Apple audio with iTunes info
Codec ID                                 : M4A
File size                                : 8.10 MiB
Duration                                 : 3mn 45s
Overall bit rate mode                    : Variable
Overall bit rate                         : 301 Kbps
Album                                    : Argo (Original Motion Picture Soundtrack)
Album/Performer                          : Alexandre Desplat
Part/Position                            : 1
Part/Total                               : 1
Track name                               : Bazaar
Track name/Position                      : 15
Track name/Total                         : 17
Performer                                : Alexandre Desplat
Genre                                    : Soundtrack
ContentType                              : Music
Recorded date                            : UTC 2012-10-09 07:00:00
Encoded date                             : UTC 1976-02-27 21:17:00
Tagged date                              : UTC 2013-02-07 13:19:17
Copyright                                : ℗ 2012 WaterTower Music
Cover                                    : Yes
Rating                                   : None
AppleStoreAccount                        : zaojiancun8@hotmail.com
AppleStoreCatalogID                      : 565634748
AlbumTitleID                             : 267126119
PlayListID                               : 565634425
GenreID                                  : 1169
AppleStoreCountry                        : United States
PurchaseDate                             : 2013-02-07 05:07:19
Vendor                                   : WarnerBrosEnt:isrc:USNLR1200425
iTunMOVI                                 : <?xml version="1.0" encoding="UTF-8"?> / <!DOCTYPE plist PUBLIC "-//Apple//DTD PLIST 1.0//EN" "http://www.apple.com/DTDs/PropertyList-1.0.dtd"> / <plist version="1.0"> / <dict> /   <key>asset-info</key> /   <dict> /     <key>file-size</key> /     <integer>8497468</integer> /     <key>flavor</key> /     <string>2:256</string> /   </dict> / </dict> / </plist>

Audio
ID                                       : 1
Format                                   : AAC
Format/Info                              : Advanced Audio Codec
Format profile                           : LC
Codec ID                                 : 40
Duration                                 : 3mn 45s
Bit rate mode                            : Variable
Bit rate                                 : 280 Kbps
Nominal bit rate                         : 256 Kbps
Maximum bit rate                         : 309 Kbps
Channel(s)                               : 2 channels
Channel positions                        : Front: L R
Sampling rate                            : 44.1 KHz
Compression mode                         : Lossy
Stream size                              : 7.53 MiB (93%)
Language                                 : English
Encoded date                             : UTC 1976-02-27 21:17:00
Tagged date                              : UTC 2013-02-07 13:19:17

General
Complete name                            : D:\Sound\Music\Soundtracks\Argo\Alexandre Desplat - Argo - Score (2012) [AAC]\16 Cleared Iranian Airspace.m4a
Format                                   : MPEG-4
Format profile                           : Apple audio with iTunes info
Codec ID                                 : M4A
File size                                : 12.1 MiB
Duration                                 : 6mn 1s
Overall bit rate mode                    : Variable
Overall bit rate                         : 281 Kbps
Album                                    : Argo (Original Motion Picture Soundtrack)
Album/Performer                          : Alexandre Desplat
Part/Position                            : 1
Part/Total                               : 1
Track name                               : Cleared Iranian Airspace
Track name/Position                      : 16
Track name/Total                         : 17
Performer                                : Alexandre Desplat
Genre                                    : Soundtrack
ContentType                              : Music
Recorded date                            : UTC 2012-10-09 07:00:00
Encoded date                             : UTC 1997-12-15 07:07:56
Tagged date                              : UTC 2013-02-07 13:19:13
Copyright                                : ℗ 2012 WaterTower Music
Cover                                    : Yes
Rating                                   : None
AppleStoreAccount                        : zaojiancun8@hotmail.com
AppleStoreCatalogID                      : 565634769
AlbumTitleID                             : 267126119
PlayListID                               : 565634425
GenreID                                  : 1169
AppleStoreCountry                        : United States
PurchaseDate                             : 2013-02-07 05:07:19
Vendor                                   : WarnerBrosEnt:isrc:USNLR1200426
iTunMOVI                                 : <?xml version="1.0" encoding="UTF-8"?> / <!DOCTYPE plist PUBLIC "-//Apple//DTD PLIST 1.0//EN" "http://www.apple.com/DTDs/PropertyList-1.0.dtd"> / <plist version="1.0"> / <dict> /   <key>asset-info</key> /   <dict> /     <key>file-size</key> /     <integer>12692622</integer> /     <key>flavor</key> /     <string>2:256</string> /   </dict> / </dict> / </plist>

Audio
ID                                       : 1
Format                                   : AAC
Format/Info                              : Advanced Audio Codec
Format profile                           : LC
Codec ID                                 : 40
Duration                                 : 6mn 1s
Bit rate mode                            : Variable
Bit rate                                 : 256 Kbps
Maximum bit rate                         : 304 Kbps
Channel(s)                               : 2 channels
Channel positions                        : Front: L R
Sampling rate                            : 44.1 KHz
Compression mode                         : Lossy
Stream size                              : 11.5 MiB (95%)
Language                                 : English
Encoded date                             : UTC 1997-12-15 07:07:56
Tagged date                              : UTC 2013-02-07 13:19:13

General
Complete name                            : D:\Sound\Music\Soundtracks\Argo\Alexandre Desplat - Argo - Score (2012) [AAC]\17 Hace Tuto Guagua.m4a
Format                                   : MPEG-4
Format profile                           : Apple audio with iTunes info
Codec ID                                 : M4A
File size                                : 7.51 MiB
Duration                                 : 3mn 39s
Overall bit rate mode                    : Variable
Overall bit rate                         : 287 Kbps
Album                                    : Argo (Original Motion Picture Soundtrack)
Album/Performer                          : Alexandre Desplat
Part/Position                            : 1
Part/Total                               : 1
Track name                               : Hace Tuto Guagua
Track name/Position                      : 17
Track name/Total                         : 17
Performer                                : Familion
Genre                                    : Soundtrack
ContentType                              : Music
Recorded date                            : UTC 2012-10-09 07:00:00
Encoded date                             : UTC 2012-11-03 08:35:24
Tagged date                              : UTC 2013-02-07 13:21:09
Copyright                                : ℗ 2012 WaterTower Music
Cover                                    : Yes
Rating                                   : None
AppleStoreAccount                        : zaojiancun8@hotmail.com
AppleStoreCatalogID                      : 565634770
AlbumTitleID                             : 1197165
PlayListID                               : 565634425
GenreID                                  : 1169
AppleStoreCountry                        : United States
PurchaseDate                             : 2013-02-07 05:07:19
Vendor                                   : WarnerBrosEnt:isrc:USSM19602256
iTunMOVI                                 : <?xml version="1.0" encoding="UTF-8"?> / <!DOCTYPE plist PUBLIC "-//Apple//DTD PLIST 1.0//EN" "http://www.apple.com/DTDs/PropertyList-1.0.dtd"> / <plist version="1.0"> / <dict> /   <key>asset-info</key> /   <dict> /     <key>file-size</key> /     <integer>7873616</integer> /     <key>flavor</key> /     <string>2:256</string> /   </dict> / </dict> / </plist>

Audio
ID                                       : 1
Format                                   : AAC
Format/Info                              : Advanced Audio Codec
Format profile                           : LC
Codec ID                                 : 40
Duration                                 : 3mn 39s
Bit rate mode                            : Variable
Bit rate                                 : 256 Kbps
Maximum bit rate                         : 368 Kbps
Channel(s)                               : 2 channels
Channel positions                        : Front: L R
Sampling rate                            : 44.1 KHz
Compression mode                         : Lossy
Stream size                              : 6.94 MiB (92%)
Language                                 : English
Encoded date                             : UTC 2012-11-03 08:35:24
Tagged date                              : UTC 2013-02-07 13:21:09

General
Complete name                            : D:\Sound\Music\Soundtracks\Argo\Alexandre Desplat - Argo - Score (2012) [AAC]\Digital Booklet -Original Mot.pdf
File size                                : 6.85 MiB
Время раздачи: Сб-Вс с 09:00 до 23:30
[NNM-Club.me]_Alexandre Desplat - Argo - Score (2012) [AAC].torrent
 Торрент: Платиновая раздача  Зарегистрирован
 
Скачать


Примагнититься
 Зарегистрирован:   17 Июл 2014 20:36:34
 Размер:   130 MB  (
 Рейтинг:   4.6 (Голосов: 12)
 Поблагодарили:   27
 Проверка:   Оформление проверено модератором 17 Июл 2014 20:37:59
Как cкачать  ·  Как раздать  ·  Правильно оформить  ·  Поднять ратио!  
igoryek ®
Стаж: 15 лет 2 мес.
Сообщений: 347
Ratio: 45.032
Поблагодарили: 23621
100%
раздача обновлена. извините за неудобства.
Показать сообщения:   
Начать новую тему   Ответить на тему    Торрент-трекер NNM-Club -> Аудио и Видео -> Музыка (AAC) Часовой пояс: GMT + 3
Страница 1 из 1