Классический форум-трекер
canvas not supported
Нас вместе: 4 231 785

Как приручить дракона 2 (How to train your dragon 2) (2014) [MP4|1280x720] <CamRip H.264>


Страницы:   Пред.  1, 2 
 
RSS
Начать новую тему   Ответить на тему    Торрент-трекер NNM-Club -> Архив торрентов -> Архив Мультфильмов
Автор Сообщение
Stitch2s ®
Стаж: 10 лет 2 мес.
Сообщений: 11
Ratio: 228.109
Раздал: 6.995 TB
Поблагодарили: 415
100%
Как приручить дракона 2 (How to train your dragon 2) (2014) CamRip
Год выпуска: 2014
Жанр: Фэнтези, Комедия, Приключения
Кинокомпания: Dreamworks

Режиссер: Дин ДеБлуа
Актеры: Джей Барушель. Кейт Бланшетт, Джерард Батлер, Крэйг Фергюсон, Америка Феррера, Джона Хилл, Кристофер Минц-Плассе, ТиДжей Миллер Кристен Уиг, Джимон Хонсу
Описание фильма:
С момента примирения викингов и драконов прошло пять лет. Пока Астрид, Сморкала и остальные ребята проводят время, соревнуясь друг с другом в популярных на острове драконьих гонках, Иккинг и Беззубик путешествуют по небу, составляя карту неизвестных мест. Когда одно из их приключений приводит к открытию тайной ледяной пещеры, которая является домом для сотен ранее невиданных диких драконов и таинственного драконьего всадника, два друга оказываются в центре битвы за защиту мира.

Дата мировой премьеры: 16 мая 2014 года
Дата российской премьеры: 12 июня 2014 года
Дата выхода DVD релиза: 1 ноября 2014 года
Продолжительность: 01:32:11
Перевод: многоголосый дублированный

Качество видео: CamRip
Формат: MP4
Видео: AVC, 1280x720, 3952 kb/s
Аудио AAC, 2.0, 256 kb/s/
Код:
Общее
Полное имя                               : D:\How To Train Your Dragon 2\HTTYD2.Part1.CamRip.mp4
Формат                                   : MPEG-4
Профиль формата                          : Base Media / Version 2
Идентификатор кодека                     : mp42
Размер файла                             : 2,65 Гбайт
Продолжительность                        : 1 ч. 30 м.
Режим общего битрейта                    : Постоянный
Общий поток                              : 4215 Кбит/сек
Дата кодирования                         : UTC 2014-06-17 17:07:16
Дата пометки                             : UTC 2014-06-17 17:07:16

Видео
Идентификатор                            : 1
Формат                                   : AVC
Формат/Информация                        : Advanced Video Codec
Профиль формата                          : Baseline@L3.1
Параметр CABAC формата                   : Нет
Параметр ReFrames формата                : 1 кадр
Параметр GOP формата                     : M=1, N=25
Идентификатор кодека                     : avc1
Идентификатор кодека/Информация          : Advanced Video Coding
Продолжительность                        : 1 ч. 30 м.
Вид битрейта                             : Постоянный
Битрейт                                  : 3952 Кбит/сек
Номинальный битрейт                      : 12,0 Мбит/сек
Ширина                                   : 1280 пикселей
Высота                                   : 720 пикселей
Соотношение сторон                       : 16:9
Режим частоты кадров                     : Переменный
Частота кадров                           : 25,000 кадров/сек
Минимальная частота кадров               : 24,979 кадров/сек
Максимальная частота кадров              : 25,042 кадров/сек
Цветовое пространство                    : YUV
Субдискретизация насыщенности            : 4:2:0
Битовая глубина                          : 8 бит
Тип развёртки                            : Прогрессивная
Бит/(Пиксели*Кадры)                      : 0.172
Размер потока                            : 2,49 Гбайт (94%)
Дата кодирования                         : UTC 2014-06-17 17:07:16
Дата пометки                             : UTC 2014-06-17 17:07:16

Аудио
Идентификатор                            : 2
Формат                                   : AAC
Формат/Информация                        : Advanced Audio Codec
Профиль формата                          : LC
Идентификатор кодека                     : 40
Продолжительность                        : 1 ч. 29 м.
Вид битрейта                             : Постоянный
Битрейт                                  : 256 Кбит/сек
Каналы                                   : 2 канала
Расположение каналов                     : Front: L R
Частота                                  : 48,0 КГц
Метод сжатия                             : С потерями
Размер потока                            : 165 Мбайт (6%)
Дата кодирования                         : UTC 2014-06-17 17:07:17
Дата пометки                             : UTC 2014-06-17 17:07:17

Скриншоты:



В раздаче присутствует два файла. Так получилось из за ограничения съемки одной записи в 90 минут. Примерно 5 секунд съемки утеряно между записями.
Видео пережимать не стал из за потери качества после этого.


Торрент перезалит. Для раздающих или не докачавших требуется изменить названия файлов и скачать торрент заново. Само содержимое при этом заново скачивать не нужно!
[NNM-Club.me]_How To Train Your Dragon 2.torrent
 Торрент: Платиновая раздача  Зарегистрирован
 
Скачать


Примагнититься
 Зарегистрирован:   21 Июн 2014 22:18:15
 Размер:   2.74 GB  (
 Рейтинг:   4 (Голосов: 68)
 Поблагодарили:   237
 Проверка:   Оформление проверено модератором 21 Июн 2014 23:16:33
Как cкачать  ·  Как раздать  ·  Правильно оформить  ·  Поднять ратио!  
afair
Стаж: 12 лет 6 мес.
Сообщений: 40
Ratio: 3.272
0.6%
Не надо обрезать, у парня рука иногда дрожала, так приходилось окно обзора все время двигать то налево, то направо, то вниз, то вверх. Если такое обрезать, то картинка потеряется местами. Качество норм, так что включайте MPC и как с джойстиком.

 !  Примечание от YaKrevetko:
5.6. Запрещен оверквотинг. Цитируйте только важные, существенные, части сообщения, на которые Вы отвечаете.
Если есть необходимость процитировать длинное сообщение - убирайте его в спойлер.
NIk00700
Стаж: 13 лет 1 мес.
Сообщений: 9
Ratio: 4.525
2.11%
Xvidом можно. В сети уже появился обрезанный и сжатый вариант твоего видео

 !  Примечание от YaKrevetko:
5.6. Запрещен оверквотинг. Цитируйте только важные, существенные, части сообщения, на которые Вы отвечаете.
Если есть необходимость процитировать длинное сообщение - убирайте его в спойлер.
Stitch2s ®
Стаж: 10 лет 2 мес.
Сообщений: 11
Ratio: 228.109
Раздал: 6.995 TB
Поблагодарили: 415
100%
Хех, как быстро)) Можно уже не заморачиваться? //нужно.
Где кстати выложили?)

 !  Примечание от YaKrevetko:
5.6. Запрещен оверквотинг. Цитируйте только важные, существенные, части сообщения, на которые Вы отвечаете.
Если есть необходимость процитировать длинное сообщение - убирайте его в спойлер.
Stitch2s ®
Стаж: 10 лет 2 мес.
Сообщений: 11
Ratio: 228.109
Раздал: 6.995 TB
Поблагодарили: 415
100%
Unsleeps7
Спасибо, посмотрел) Жаль что человек еще и звуковую дорожку пережал, качество звука хуже стало.
NIk00700
Стаж: 13 лет 1 мес.
Сообщений: 9
Ratio: 4.525
2.11%
Stitch2s писал(а): Перейти к сообщению
Хех, как быстро)) Можно уже не заморачиваться?
Где кстати выложили?)


Много где уже есть, ссылок 20, а может и больше в гугле выдает.
Спасибо за исходник) Мультик отличный!
leggy
Стаж: 13 лет 8 мес.
Сообщений: 29
Ratio: 5.661
13.28%
Еще раз респект за релиз, посмотрел. Посмотреть на планшете можно (бывали первые CAMы значительно хуже), да и звук вполне ничего, хороший телефон, жаль с местом прогадали ))
Но теперь знаю точно, что с удовольствием пойду с семьей в 3д и не пожалеем потраченного времени! ))
oktaider
Только чтение
Стаж: 13 лет
Сообщений: 477
Ratio: 29.415
Раздал: 31.5 TB
Поблагодарили: 182
100%
ukraine.gif
автор старался.респект!но сэмпл нужен обязательно для такого загадочного качества
Raptor303
Стаж: 12 лет 6 мес.
Сообщений: 8703
Ratio: 44.045
100%
estonia.gif
Цитата:
С момента примирения викингов и драконов прошло пять лет.

А что происходило за это время, мы можем узнать из мультсериала "Dragons - Riders of Berk" (2012)(20 эпизодов):
http://nnmclub.to/forum/viewtopic.php?t=724426
Genezis-nsd
Стаж: 13 лет 11 мес.
Сообщений: 35
Ratio: 3.323
0%
kazakhstan.gif
когда нормальное качество будет?
klywl
Стаж: 14 лет
Сообщений: 1072
Ratio: 603.583
Поблагодарили: 17142
100%
Откуда: Самара
ussr.gif
Genezis-nsd
шапку читать не пробовали :огорчение:
Дата выхода DVD релиза: 1 ноября 2014 года

_________________
Топик был перенесен из форума Мобильное Видео в форум Архив Мультфильмов

Причина переноса: В целевой подраздел.

Исправил релиз - напиши ЛС Casper1313, дав ссылку на релиз.
Если нет ответа 24 часа - нажми на кнопку "Обратить внимание модераторов".
Показать сообщения:   
Начать новую тему   Ответить на тему    Торрент-трекер NNM-Club -> Архив торрентов -> Архив Мультфильмов Часовой пояс: GMT + 3
Страницы:   Пред.  1, 2
Страница 2 из 2