Классический форум-трекер
canvas not supported
Нас вместе: 4 200 617

Пластик / Plastic (2014) WEB-DLRip


Страницы:  1, 2  След. 
 
RSS
Начать новую тему   Ответить на тему    Торрент-трекер NNM-Club -> Зарубежное кино -> Зарубежные Фильмы (SD)
Автор Сообщение
ZoNoW ®
Модератор Видео
Стаж: 11 лет 3 мес.
Сообщений: 8003
Ratio: 692K
Раздал: 83.44 TB
Поблагодарили: 3754416
100%
ussr.gif
Пластик / Plastic (2014) WEB-DLRip
Год выпуска: 2014
Производство: Великобритания, Gateway Films
Жанр: Боевик, Драма, Комедия, Криминал
Перевод: Дублированный (iTunes)
Субтитры: Отсутствуют

Дата мировой премьеры: 30 апреля 2014
Дата российской премьеры: 19 июня 2014, «Люксор»
Дата выхода DVD релиза: 24 июля 2014, «CD Land»

Режиссер: Джулиан Джилби
Продюсер: Алессандро Форте, Крис Ховард, Фрэнк Мэннион
Актеры: Эдвард Спелирс, Уилл Поултер, Элфи Оуэн-Аллен, Себастьян Де Соуза, Эмма Ригби, Томас Кречман, Грэм МакТавиш, Малез Джоу, Терри Стоун, Эшли Чин

Описание фильма:
Фильм основан на реальной истории. Банде друзей удалось проникнуть в одну из самых больших в мире компаний, которая работает с кредитными картами. Им удается провернуть одну из самых дерзких краж в британской истории.



Возраст: 16+

Продолжительность: 01:41:24
Качество видео: WEB-DLRip

Видеокодек: XviD
Битрейт видео: 1664 kb/s
Размер кадра: 720x304
Аудиокодек: AC3 5.1
Битрейт аудио: 384 kb/s
Код:
Общее
Полное имя                               : D:\Раздачи\Plastik.2014.WEB-DLRip.NNM-CLUB.avi
Формат                                   : AVI
Формат/Информация                        : Audio Video Interleave
Размер файла                             : 1,46 Гбайт
Продолжительность                        : 1 ч. 41 м.
Общий поток                              : 2058 Кбит/сек
Программа кодирования                    : VirtualDubMod 1.5.10.3 | (build 2550/release)
Библиотека кодирования                   : VirtualDubMod build 2550/release

Видео
Идентификатор                            : 0
Формат                                   : MPEG-4 Visual
Профиль формата                          : Advanced Simple@L5
Параметр BVOP формата                    : 2
Параметр QPel формата                    : Нет
Параметр GMC формата                     : Без точки перехода
Параметр матрицы формата                 : Default (H.263)
Идентификатор кодека                     : XVID
Идентификатор кодека/Подсказка           : XviD
Продолжительность                        : 1 ч. 41 м.
Битрейт                                  : 1664 Кбит/сек
Ширина                                   : 720 пикселей
Высота                                   : 304 пикселя
Соотношение сторон                       : 2,35:1
Частота кадров                           : 24,000 кадра/сек
Цветовое пространство                    : YUV
Субдискретизация насыщенности            : 4:2:0
Битовая глубина                          : 8 бит
Тип развёртки                            : Прогрессивная
Метод сжатия                             : С потерями
Бит/(Пиксели*Кадры)                      : 0.317
Размер потока                            : 1,18 Гбайт (81%)
Библиотека кодирования                   : XviD 1.2.1 (UTC 2008-12-04)

Аудио
Идентификатор                            : 1
Формат                                   : AC-3
Формат/Информация                        : Audio Coding 3
Расширение режима                        : CM (complete main)
Параметр Endianness формата              : Big
Идентификатор кодека                     : 2000
Продолжительность                        : 1 ч. 41 м.
Вид битрейта                             : Постоянный
Битрейт                                  : 384 Кбит/сек
Каналы                                   : 6 каналов
Расположение каналов                     : Front: L C R, Side: L R, LFE
Частота                                  : 48,0 КГц
Битовая глубина                          : 16 бит
Метод сжатия                             : С потерями
Размер потока                            : 279 Мбайт (19%)
Выравнивание                             : Разделение по промежуткам
Продолжительность промежутка             : 42  мс. (1,00 видеокадр)
Время предзагрузки промежутка            : 500  мс.
Скриншоты:


Время раздачи: 24/7,
до 5 скачавших.
Plastik.2014.WEB-DLRip.NNM-CLUB.avi.torrent
 Торрент: Платиновая раздача  Зарегистрирован
 
Скачать


Примагнититься
 Зарегистрирован:   06 Июл 2014 22:29:46
 Размер:   1.46 GB  (
 Рейтинг:   4.6 (Голосов: 171)
 Поблагодарили:   754
 Проверка:   Оформление проверено модератором 06 Июл 2014 22:35:36
Как cкачать  ·  Как раздать  ·  Правильно оформить  ·  Поднять ратио!  

_________________
Правила оформления релизов в разделе «Видео» | Исправил релиз? - напиши об этом в ЛС
MegaTroNuZ
Стаж: 11 лет 11 мес.
Сообщений: 142
Ratio: 15.638
100%
russia.gif
Банде друзей удалось проникнуть в одну из самых больших в мире компаний, которая работает с кредитными картами.
Это точно русские, молодые хакеры, тупизм - это в кино произвести легко!
Сколько можно снимать гумно про малолетних любителей компов - уже не актуально как Рембо во Вьетнаме!

Добавлено спустя 1 минуту 34 секунды:

Не качать, не смотреть - только накуренным!
Laven
Стаж: 9 лет 11 мес.
Сообщений: 127
Ratio: 37.099
Поблагодарили: 47
4.19%
Да это же Теон Грейджой aka Вонючка!
ed122248
Стаж: 12 лет 3 мес.
Сообщений: 34
Ratio: 0.884
66.48%
клевый фильм
liberman0
Стаж: 11 лет
Сообщений: 79
Ratio: 23.383
100%
ukraine.gif
Фильм стоящий!Посмотрел с удовольствием.Радует,что британцы снимают немного иначе,чем америкосы.Рейтинг мог быть и повыше,учитывая некоторое  ,которому ставят 7-8 в IMDB.
Ignotus
 
Стаж: 9 лет 9 мес.
Сообщений: 1955
Ratio: 2542.354
100%
ussr.gif
Посмотрим, заценим.

_________________
В этом мире нет секретов, даже если все думают, что это только их секрет.
Mindkilla
Стаж: 9 лет 5 мес.
Сообщений: 2681
Ratio: 25.795
100%
Откуда: Amalfi
japan.gif
Фильм в голливудском стиле, ничего английского в нем нет. И это, надо сказать, плохо.
pr_eacher
Стаж: 11 лет 8 мес.
Сообщений: 329
Ratio: 5.19
100%
Откуда: Россия будущего
krevedko.png
megatronuz писал(а): Перейти к сообщению
Банде друзей удалось проникнуть в одну из самых больших в мире компаний, которая работает с кредитными картами.
Это точно русские, молодые хакеры, тупизм - это в кино произвести легко!
Сколько можно снимать гумно про малолетних любителей компов - уже не актуально как Рембо во Вьетнаме!

Добавлено спустя 1 минуту 34 секунды:

Не качать, не смотреть - только накуренным!

Не актуально? Вы в каком веке живете, актуальность "компов" с каждым днем возрастает и возрастает...
IT ВЕК ёмаё

_________________
«Мы живем как свиньи и дохнем как свиньи только потому, что мы друг другу никто», (кинофильм «Дурак»).
dr_mobill
Стаж: 15 лет 4 мес.
Сообщений: 1114
Ratio: 14.838
Поблагодарили: 5030
100%
Откуда: Мы все оттуда
pirates.png
Цитата:
Не качать, не смотреть - только накуренным!

Значит покурим и посмотрим :)
bigaspid
Стаж: 8 лет 10 мес.
Сообщений: 34
Ratio: 7.881
0.15%
russia.gif
€`Alt писал(а): Перейти к сообщению
megatronuz писал(а): Перейти к сообщению
Банде друзей удалось проникнуть в одну из самых больших в мире компаний, которая работает с кредитными картами.
Это точно русские, молодые хакеры, тупизм - это в кино произвести легко!
Сколько можно снимать гумно про малолетних любителей компов - уже не актуально как Рембо во Вьетнаме!

Добавлено спустя 1 минуту 34 секунды:

Не качать, не смотреть - только накуренным!

Не актуально? Вы в каком веке живете, актуальность "компов" с каждым днем возрастает и возрастает...
IT ВЕК ёмаё


В том то и дело, что возрастает не только актуальность, но и меры защиты. То что было во времена Рембо мог обойти и продвинутый школьник-хакер.
parpales
Стаж: 11 лет 10 мес.
Сообщений: 13
Ratio: 10.494
100%
russia.gif
Фильм хорош.
vovka036
Стаж: 11 лет 10 мес.
Сообщений: 1730
Ratio: 0.803
86.13%
russia.gif
Суперское кино. Звук хороший. Актрисса красивая.
lavren80
Стаж: 12 лет 5 мес.
Сообщений: 51
Ratio: 2.152
40.79%
canada.gif
Ожидал большего, так посмотрел и забыл.
Туповатый однако фильм... Концовка вообще убогая какая то. В общем 5 из 10.
Gitler777
Стаж: 12 лет 8 мес.
Сообщений: 27
Ratio: 3.057
Поблагодарили: 253
27.48%
russia.gif
Пасиб!

_________________
3нание бывает двух видов. Мы сами знаем предмет - или же знаем, где найти о нем сведения.
Lox2010
Стаж: 11 лет 9 мес.
Сообщений: 791
Ratio: 2.501
100%
nnm-club.gif
Очень динамичный фильмец. И Эмма хороша...
Показать сообщения:   
Начать новую тему   Ответить на тему    Торрент-трекер NNM-Club -> Зарубежное кино -> Зарубежные Фильмы (SD) Часовой пояс: GMT + 3
Страницы:  1, 2  След.
Страница 1 из 2