Классический форум-трекер
canvas not supported
Нас вместе: 4 200 615

Пластик / Plastic (2014) WEB-DLRip


 
 
RSS
Начать новую тему   Ответить на тему    Торрент-трекер NNM-Club -> Зарубежное кино -> Зарубежные Фильмы (SD)
Автор Сообщение
Serj9381 ®
Стаж: 10 лет 2 мес.
Сообщений: 500
Ratio: 939.339
Поблагодарили: 71013
100%
Откуда: СССР
ussr.gif
Пластик / Plastic (2014) WEB-DLRip«Всё до пенни»
Год выпуска: 2014
Производство: Великобритания / Paramount Pictures
Жанр: Боевик, Драма, Комедия

Описание фильма:
Фильм основан на реальной истории. Банде друзей удалось проникнуть в одну из самых больших в мире компаний, которая работает с кредитными картами. Им удается провернуть одну из самых дерзких краж в британской истории.

Режиссер: Джулиан Джилби
Продюсер: Алессандро Форте, Крис Ховард, Фрэнк Мэннион
Актеры: Эдвард Спелирс, Уилл Поултер, Элфи Оуэн-Аллен, Себастьян Де Соуза, Эмма Ригби, Томас Кречман, Грэм МакТавиш, Малез Джоу, Терри Стоун, Эшли Чин

Перевод: Дублированный (iTunes)
Субтитры: Отсутствуют



Дата мировой премьеры: 30 апреля 2014
Дата российской премьеры: 19 июня 2014, «Люксор»
Дата украинской премьеры: 3 июля 2014, «Галеон кино»
Дата выхода DVD / Blu-Ray релиза: 24 июля 2014, «CD Land»

Продолжительность: 01:41:24
Качество видео: WEB-DLRip

Видеокодек: Xvid
Битрейт видео: ~887 Kbit/s
Размер кадра: 640 x 272
Аудиокодек: AC3 2.0
Битрейт аудио: 128 Kbit/s
Общее
Полное имя : D:\Торренты\РЕЛИЗЫ\Пластик.2014.WEB-DLRip.700MB.avi
Формат : AVI
Формат/Информация : Audio Video Interleave
Размер файла : 743 Мбайт
Продолжительность : 1 ч. 41 м.
Общий поток : 1024 Кбит/сек
Программа кодирования : VirtualDubMod 1.5.10.3 (build 2550/release)
Библиотека кодирования : VirtualDubMod build 2550/release

Видео
Идентификатор : 0
Формат : MPEG-4 Visual
Профиль формата : Advanced Simple@L5
Параметр BVOP формата : 2
Параметр QPel формата : Нет
Параметр GMC формата : Без точки перехода
Параметр матрицы формата : Default (H.263)
Идентификатор кодека : XVID
Идентификатор кодека/Подсказка : XviD
Продолжительность : 1 ч. 41 м.
Битрейт : 887 Кбит/сек
Ширина : 640 пикс.
Высота : 272 пикс.
Соотношение сторон : 2,35:1
Частота кадров : 24,000 кадр/сек
Цветовое пространство : YUV
Подвыборка цветности : 4:2:0
Битовая глубина : 8 бит
Тип развёртки : Прогрессивная
Метод сжатия : С потерями
Бит/(Пиксели*Кадры) : 0.212
Размер потока : 643 Мбайт (87%)
Библиотека кодирования : XviD 1.2.1 (UTC 2008-12-04)

Аудио
Идентификатор : 1
Формат : AC-3
Формат/Информация : Audio Coding 3
Расширение режима : CM (complete main)
Идентификатор кодека : 2000
Продолжительность : 1 ч. 41 м.
Вид битрейта : Постоянный
Битрейт : 128 Кбит/сек
Каналы : 2 канала
Расположение каналов : Front: L R
Частота : 48,0 КГц
Битовая глубина : 16 бит
Метод сжатия : С потерями
Размер потока : 92,8 Мбайт (12%)
Выравнивание : Разделение по промежуткам
Продолжительность промежутка : 42 мс. (1,00 видеокадр)
Время предзагрузки промежутка : 500 ms

Скриншоты:

Время раздачи: 24/7 по возможности
[NNM-Club.me]_Plastik.2014.WEB-DLRip.700MB.avi.torrent
 Торрент:   Зарегистрирован
 
Зарегистрируйтесь и скачайте торрент!
15 KB
Free Leech
Примагнититься
 Зарегистрирован:   07 Июл 2014 04:41:55
 Размер:   743 MB  (
 Рейтинг:   4.4 (Голосов: 79)
 Поблагодарили:   328
 Проверка:   Оформление проверено модератором 07 Июл 2014 05:22:57
Как cкачать  ·  Как раздать  ·  Правильно оформить  ·  Поднять ратио!  
dnalov1
Стаж: 12 лет 1 мес.
Сообщений: 78
Ratio: 2
100%
ussr.gif
Теперь этот альбинос для меня всегда будет Вонючка!
WOODY_ZLO
Стаж: 11 лет 9 мес.
Сообщений: 86
Ratio: 23.302
100%
russia.gif
dnalov1 писал(а): Перейти к сообщению
Теперь этот альбинос для меня всегда будет Вонючка!
Зачёт !!!
Grozniy666
Стаж: 11 лет 5 мес.
Сообщений: 4
Ratio: 10.449
24.15%
dnalov1 писал(а): Перейти к сообщению
Теперь этот альбинос для меня всегда будет Вонючка!


:смех: :смех:
Neoxren
Стаж: 12 лет 3 мес.
Сообщений: 34
Ratio: 17.234
Раздал: 9.167 TB
25%
nnm-club.gif
dnalov1 писал(а): Перейти к сообщению
Теперь этот альбинос для меня всегда будет Вонючка!

У него и здесь роль не лучше :D

_________________
asker611
Стаж: 11 лет 5 мес.
Сообщений: 600
Ratio: 2.187
24.3%
russia.gif
:лол: :лол: :лол: в точку.
dan67
Стаж: 14 лет 10 мес.
Сообщений: 8
Ratio: 34.24
Раздал: 5.647 TB
100%
Откуда: Питер
russia.gif
dnalov1 писал(а): Перейти к сообщению
Теперь этот альбинос для меня всегда будет Вонючка!
В точку!!!!!!

_________________
Dalvik
Слишком хорошо, тоже не хорошо !!!!!!
xelay
Стаж: 11 лет 9 мес.
Сообщений: 186
Ratio: 17.341
100%
russia.gif
Не плохой фильма, лично мне понравился.
Видимо в Старом свете и вправду с работой туго.
xray26

Online
Стаж: 11 лет 7 мес.
Сообщений: 554
Ratio: 6.694
Поблагодарили: 7
100%
Откуда: Ставрополь
russia.gif
в старом свете не тока с работой туго а с головой тоже...отупевают люди....
Показать сообщения:   
Начать новую тему   Ответить на тему    Торрент-трекер NNM-Club -> Зарубежное кино -> Зарубежные Фильмы (SD) Часовой пояс: GMT + 3
Страница 1 из 1