Классический форум-трекер
canvas not supported
Нас вместе: 4 078 930

Невероятная жизнь Уолтера Митти / The Secret Life of Walter Mitty (2013) BDRemux [H.265/1080p]


Страницы:  1, 2  След. 
 
RSS
Начать новую тему   Ответить на тему    Торрент-трекер NNM-Club -> Зарубежное кино -> Зарубежные Фильмы (HD*Rip/LQ, DVDRip, SATRip, VHSRip)
Автор Сообщение
Vsalat ®
Стаж: 8 лет 5 мес.
Сообщений: 64
Ratio: 18,117
Поблагодарили: 2935
100%
russia.gif
Невероятная жизнь Уолтера Митти / The Secret Life of Walter Mitty (2013) BDRemux [H.265/1080p]
Год выпуска: 2013
Жанр: Фэнтези, Драма, Комедия

Описание фильма:
Новый взгляд на старый сюжет представляет фильм «Невероятная жизнь Уолтера Митти» (The Secret Life of Walter Mitty). Ремейк одноименной картины 1947 года, он знакомит нас с Уолтером Митти (Бен Стиллер), застенчивым человеком, который стоит на пороге больших перемен в своей жизни. Уолтер любит мечтать, и в этих своих фантазиях он, робкий и тихий, превращается в настоящего героя, а его жизнь полна приключений. Герой картины «Невероятная жизнь Уолтера Митти» и представить себе не может, что совсем скоро эти удивительные мечты совершенно неожиданным образом воплотятся в жизнь…

Режиссер: Бен Стиллер
Актеры: Кристен Уиг, Бен Стиллер, Шон Пенн, Адам Скотт, Кэтрин Хан, Ширли МакЛейн, Пэттон Освальт, Джои Слотник, Тосико Онидзава, Адриан Мартинез

Продолжительность: 01:54:34
Качество видео: BDRemux
Перевод: Дублированный [Лицензия]
Релиз группа: Salat-Production
Язык субтитров: Русские, Украинские, Английские
Вид субтитров: Вшитые (Отключаемые)



Видео: HEVC/H265, 1920x1080, ~7000 Кбит/с
Аудио #1: AC3 5.1, 640 Кбит/с - Русский
Аудио #2: AC3 5.1, 640 Кбит/с - Украинский
Аудио #3: AC3 5.1, 640 Кбит/с - Английский
Код:
Уникальный идентификатор: 243765501752133109020378539268770337902 (0xB7638725FB419B279601E99DDB87946E)
Формат: Matroska
Версия формата: Version 4 / Version 2
Размер файла: 6,91 Гбайт
Продолжительность: 1 ч. 54 м.
Общий поток: 8637 Кбит/сек

Видео
Идентификатор: 7
Формат: HEVC
Формат/Информация: High Efficiency Video Coding
Идентификатор кодека: V_MPEGH/ISO/HEVC
Продолжительность: 1 ч. 54 м.
Битрейт: 6545 Кбит/сек
Ширина: 1920 пикселей
Высота: 1080 пикселя
Соотношение сторон: 16:9
Режим частоты кадров: Постоянный
Частота кадров: 23,976 кадра/сек
Бит/(Пиксели*Кадры): 0.133
Размер потока: 5,24 Гбайт (76%)
Заголовок: Release by Salat-Production

Аудио #1
Идентификатор: 4
Формат: AC-3
Формат/Информация: Audio Coding 3
Расширение режима: CM (complete main)
Параметр Endianness формата: Big
Идентификатор кодека: A_AC3
Продолжительность: 1 ч. 54 м.
Вид битрейта: Постоянный
Битрейт: 640 Кбит/сек
Каналы: 6 каналов
Расположение каналов: Front: L C R, Side: L R, LFE
Частота: 44,1 КГц
Битовая глубина: 16 бит
Метод сжатия: С потерями
Размер потока: 525 Мбайт (7%)
Язык: Russian

Аудио #2
Идентификатор: 5
Формат: AC-3
Формат/Информация: Audio Coding 3
Расширение режима: CM (complete main)
Параметр Endianness формата: Big
Идентификатор кодека: A_AC3
Продолжительность: 1 ч. 54 м.
Вид битрейта: Постоянный
Битрейт: 640 Кбит/сек
Каналы: 6 каналов
Расположение каналов: Front: L C R, Side: L R, LFE
Частота: 44,1 КГц
Битовая глубина: 16 бит
Метод сжатия: С потерями
Размер потока: 525 Мбайт (7%)
Язык: Ukrainian

Аудио #3
Идентификатор: 6
Формат: AC-3
Формат/Информация: Audio Coding 3
Расширение режима: CM (complete main)
Параметр Endianness формата: Big
Идентификатор кодека: A_AC3
Продолжительность: 1 ч. 54 м.
Вид битрейта: Постоянный
Битрейт: 640 Кбит/сек
Каналы: 6 каналов
Расположение каналов: Front: L C R, Side: L R, LFE
Частота: 44,1 КГц
Битовая глубина: 16 бит
Метод сжатия: С потерями
Размер потока: 525 Мбайт (7%)
Язык: English

Текст #1
Идентификатор: 1
Формат: UTF-8
Идентификатор кодека: S_TEXT/UTF8
Идентификатор кодека/Информация: UTF-8 Plain Text
Язык: Russian

Текст #2
Идентификатор: 2
Формат: UTF-8
Идентификатор кодека: S_TEXT/UTF8
Идентификатор кодека/Информация: UTF-8 Plain Text
Язык: Ukrainian

Текст #3
Идентификатор: 3
Формат: UTF-8
Идентификатор кодека: S_TEXT/UTF8
Идентификатор кодека/Информация: UTF-8 Plain Text
Язык: English

Меню
00:00:00.000: :Chapter 01
00:02:51.004: :Chapter 03
00:05:39.756: :Chapter 05
00:08:33.971: :Chapter 07
00:10:54.570: :Chapter 09
00:13:52.248: :Chapter 11
00:17:48.233: :Chapter 13
00:20:39.655: :Chapter 15
00:23:33.245: :Chapter 17
00:26:31.381: :Chapter 19
00:30:08.264: :Chapter 21
00:32:19.520: :Chapter 23
00:35:01.057: :Chapter 25
00:38:18.838: :Chapter 27
00:40:31.846: :Chapter 29
00:44:51.480: :Chapter 31
00:48:13.890: :Chapter 33
00:51:29.669: :Chapter 35
00:54:36.273: :Chapter 37
00:57:28.403: :Chapter 39
01:00:02.140: :Chapter 41
01:03:10.620: :Chapter 43
01:05:28.382: :Chapter 45
01:09:27.288: :Chapter 47
01:11:23.028: :Chapter 49
01:14:06.650: :Chapter 51
01:18:31.748: :Chapter 53
01:22:50.882: :Chapter 55
01:28:52.535: :Chapter 57
01:30:24.460: :Chapter 59
01:33:54.670: :Chapter 61
01:35:39.483: :Chapter 63
01:38:24.356: :Chapter 65
01:39:48.273: :Chapter 67
01:43:01.675: :Chapter 69
01:44:28.262: :Chapter 71
01:54:34.659: :Chapter 72
Скриншоты:


Время раздачи: с 13:00 до 03:00
[NNM-Club.me]_The-Secret-Life-of-Walter-Mitty-1080-HEVC.torrent
 Торрент: Платиновая раздача  Зарегистрирован
 
Скачать


Примагнититься
 Зарегистрирован:   13 Авг 2014 02:48:15
 Размер:   6,91 GB  (
 Рейтинг:   4,6 (Голосов: 126)
 Поблагодарили:   481
 Проверка:   Оформление проверено модератором 15 Авг 2014 06:19:27
Как cкачать  ·  Как раздать  ·  Правильно оформить  ·  Поднять ратио!  
Загрузка...
трезорыч
Стаж: 7 лет 2 мес.
Сообщений: 2713
Ratio: 76,377
100%
Откуда: Из Интернета
russia.gif
Прикольная фэнтезуха смотрел с удовольствием !
slay1986
Стаж: 6 лет 1 мес.
Сообщений: 2
Ratio: 7,733
7.07%
Телевизор не воспроизводит, первый раз такое, кодек непонятный какой то.
Cmapuk70
Стаж: 8 лет
Сообщений: 20
Ratio: 132,368
100%
russia.gif
На компе звук сильно торопится от видео, на телеке вообще не воспроизводиться
В топку
rinat_surgut
Стаж: 7 лет 3 мес.
Сообщений: 3
Ratio: 59,139
100%
не показывает. ни на компе, ни на телеке
abuahmed
Гость
Cmapuk70 rinat​_surg​ut, Проблемы с латинскими буквами? - Видеокодек: HEVC/H265
У вас телек поддерживает этот формат? А на компе установлены последние кодеки? Нет? Так а чего тогда воняете?
Temmi12345
Стаж: 8 лет 9 мес.
Сообщений: 1
Ratio: 1,916
1.03%
у меня тоже нет картинки, ни на компе, ни на телеке, первый раз такаое.....
Odon01
 
Стаж: 7 лет 10 мес.
Сообщений: 250
Ratio: 18,258
Поблагодарили: 200
100%
ussr.gif
Спасибо, новый формат хорош
EvilBear88
Стаж: 5 лет 4 мес.
Сообщений: 3
Ratio: 6,639
0%
шлак, с др раздачи скачаю.
Vsalat ®
Стаж: 8 лет 5 мес.
Сообщений: 64
Ratio: 18,117
Поблагодарили: 2935
100%
russia.gif
Temmi12345 писал(а): Перейти к сообщению
у меня тоже нет картинки, ни на компе, ни на телеке, первый раз такаое.....


:лол: :смех:
derebas
Стаж: 11 лет 5 мес.
Сообщений: 3
Ratio: 7,743
4.52%
Фильм уже посмотрел, но скачал для проверке на телеке. Схавал на ура. Спасибо большое автору раздачи. По больше бы новинок с таким кодеком(h.265) и таково качества. А лучше вообще в 4K!!!
Moonshade
Стаж: 8 лет 3 мес.
Сообщений: 27
Ratio: 4,03
Поблагодарили: 145
100%
Автору было бы неплохо прикладывать ссылку для скачки кодека, либо плеера для его проигрывания. В SAM Lab паке его нет, в KLite тоже.
Chiefka
Стаж: 5 лет 9 мес.
Сообщений: 7
Ratio: 23,301
100%
Дайте скорости =)
pa_live
Стаж: 8 лет 5 мес.
Сообщений: 47
Ratio: 69,382
100%
Откуда: Moscow
haiti.gif
Good!!!
iRX
 
Стаж: 12 лет 9 мес.
Сообщений: 1022
Ratio: 6,962
100%
Откуда: Москва
russia.gif
Отличное качество при меньшем размере файла! Kodi v.14 "Helix" (ex XBMC) показывает без проблем!
Так что респект Vsalat!
Показать сообщения:   
Начать новую тему   Ответить на тему    Торрент-трекер NNM-Club -> Зарубежное кино -> Зарубежные Фильмы (HD*Rip/LQ, DVDRip, SATRip, VHSRip) Часовой пояс: GMT + 3
Страницы:  1, 2  След.
Страница 1 из 2