Классический форум-трекер
canvas not supported
Нас вместе: 4 166 421

Skid Row - Rise Of The Damnation Army - United World Rebellion: Chapter Two (2014) EP [FLAC|Lossless]<Heavy Metal / Hard Rock>


 
 
RSS
Начать новую тему   Ответить на тему    Торрент-трекер NNM-Club -> Архив торрентов -> Архив Музыки
Автор Сообщение
_cynic_ ®
Стаж: 13 лет 1 мес.
Сообщений: 1603
Ratio: 1114.82
Поблагодарили: 71825
100%
Откуда: 61
pirates.png
Skid Row - Rise Of The Damnation Army - United World Rebellion: Chapter Two (ep) (2014)
Год: 2014
Жанр: Heavy Metal / Hard Rock
Продолжительность: 00:28:48
Лейбл: UDR Records
№ по каталогу: UDR 0320 CD
Страна: USA
Кодек: FLAC
Тип рипа: tracks+.cue
Битрейт: Lossless
Треклист:

01. We Are The Damned
02. Give It The Gun
03. Catch Your Fall
04. Damnation Army
05. Zero Day
06. Sheer Heart Attack
07. Rats In The Cellar

Код:

Exact Audio Copy V1.0 beta 3 from 29. August 2011

EAC extraction logfile from 8. August 2014, 1:04

Skid Row / Rise Of The Damnation Army - United World Rebellion: Chapter Two

Used drive  : HL-DT-STBD-RE  BH12LS30   Adapter: 0  ID: 0

Read mode               : Secure
Utilize accurate stream : Yes
Defeat audio cache      : Yes
Make use of C2 pointers : No

Read offset correction                      : 667
Overread into Lead-In and Lead-Out          : No
Fill up missing offset samples with silence : Yes
Delete leading and trailing silent blocks   : No
Null samples used in CRC calculations       : Yes
Used interface                              : Native Win32 interface for Win NT & 2000
Gap handling                                : Appended to previous track

Used output format              : User Defined Encoder
Selected bitrate                : 1024 kBit/s
Quality                         : High
Add ID3 tag                     : No
Command line compressor         : C:\Program Files (x86)\Exact Audio Copy\Flac\flac.exe
Additional command line options : -8 -V -T "ARTIST=%artist%" -T "TITLE=%title%" -T "ALBUM=%albumtitle%" -T "DATE=%year%" -T "TRACKNUMBER=%tracknr%" -T "GENRE=%genre%" -T "PERFORMER=%albuminterpret%" -T "COMPOSER=%composer%" %haslyrics%--tag-from-file=LYRICS="%lyricsfile%"%haslyrics% -T "ALBUMARTIST=%albumartist%" -T "DISCNUMBER=%cdnumber%" -T "TOTALDISCS=%totalcds%" -T "TOTALTRACKS=%numtracks%" -T "COMMENT=%comment%" %source% -o %dest%

TOC of the extracted CD

     Track |   Start  |  Length  | Start sector | End sector
    ---------------------------------------------------------
        1  |  0:00.00 |  4:22.29 |         0    |    19678
        2  |  4:22.29 |  3:46.27 |     19679    |    36655
        3  |  8:08.56 |  4:22.27 |     36656    |    56332
        4  | 12:31.08 |  3:54.41 |     56333    |    73923
        5  | 16:25.49 |  4:36.18 |     73924    |    94641
        6  | 21:01.67 |  3:27.09 |     94642    |   110175
        7  | 24:29.01 |  4:19.66 |    110176    |   129666

Track  1

     Filename C:\EACRips\Skid Row - Rise Of The Damnation Army - United World Rebellion- Chapter Two\01. We Are The Damned.wav

     Pre-gap length  0:00:02.00

     Peak level 100.0 %
     Extraction speed 1.1 X
     Track quality 100.0 %
     Test CRC A0869F4B
     Copy CRC A0869F4B
     Track not present in AccurateRip database
     Copy OK

Track  2

     Filename C:\EACRips\Skid Row - Rise Of The Damnation Army - United World Rebellion- Chapter Two\02. Give It The Gun.wav

     Pre-gap length  0:00:01.02

     Peak level 100.0 %
     Extraction speed 1.2 X
     Track quality 100.0 %
     Test CRC BA12B031
     Copy CRC BA12B031
     Track not present in AccurateRip database
     Copy OK

Track  3

     Filename C:\EACRips\Skid Row - Rise Of The Damnation Army - United World Rebellion- Chapter Two\03. Catch Your Fall.wav

     Pre-gap length  0:00:01.74

     Peak level 98.1 %
     Extraction speed 1.4 X
     Track quality 100.0 %
     Test CRC C0516361
     Copy CRC C0516361
     Track not present in AccurateRip database
     Copy OK

Track  4

     Filename C:\EACRips\Skid Row - Rise Of The Damnation Army - United World Rebellion- Chapter Two\04. Damnation Army.wav

     Pre-gap length  0:00:02.49

     Peak level 100.0 %
     Extraction speed 1.4 X
     Track quality 100.0 %
     Test CRC 70F36996
     Copy CRC 70F36996
     Track not present in AccurateRip database
     Copy OK

Track  5

     Filename C:\EACRips\Skid Row - Rise Of The Damnation Army - United World Rebellion- Chapter Two\05. Zero Day.wav

     Pre-gap length  0:00:00.89

     Peak level 100.0 %
     Extraction speed 1.4 X
     Track quality 99.9 %
     Test CRC F269F907
     Copy CRC F269F907
     Track not present in AccurateRip database
     Copy OK

Track  6

     Filename C:\EACRips\Skid Row - Rise Of The Damnation Army - United World Rebellion- Chapter Two\06. Sheer Heart Attack.wav

     Pre-gap length  0:00:01.13

     Peak level 100.0 %
     Extraction speed 1.4 X
     Track quality 99.9 %
     Test CRC 62202C07
     Copy CRC 62202C07
     Track not present in AccurateRip database
     Copy OK

Track  7

     Filename C:\EACRips\Skid Row - Rise Of The Damnation Army - United World Rebellion- Chapter Two\07. Rats In The Cellar.wav

     Pre-gap length  0:00:02.01

     Peak level 100.0 %
     Extraction speed 1.7 X
     Track quality 100.0 %
     Test CRC 6B67AE47
     Copy CRC 6B67AE47
     Track not present in AccurateRip database
     Copy OK

None of the tracks are present in the AccurateRip database

No errors occurred

End of status report

---- CUETools DB Plugin V2.1.4

[CTDB TOCID: dM4EAqfO3wZlK3CLXd9oUvI5Ry8-] found
Submit result: dM4EAqfO3wZlK3CLXd9oUvI5Ry8- has been confirmed
Track | CTDB Status
  1   | (1/1) Accurately ripped
  2   | (1/1) Accurately ripped
  3   | (1/1) Accurately ripped
  4   | (1/1) Accurately ripped
  5   | (1/1) Accurately ripped
  6   | (1/1) Accurately ripped
  7   | (1/1) Accurately ripped

==== Log checksum 25BBACD4863A53E086B613728B43B6DE13AFCEF723D384F6149EB0C4E205DE65 ====

Код:

-----------------------

DON'T MODIFY THIS FILE

-----------------------

PERFORMER: auCDtect Task Manager, ver. 1.6.0 RC1 build 1.6.0.1
Copyright (c) 2008-2010 y-soft. All rights reserved
http://y-soft.org

ANALYZER: auCDtect: CD records authenticity detector, version 0.8.2
Copyright (c) 2004 Oleg Berngardt. All rights reserved.
Copyright (c) 2004 Alexander Djourik. All rights reserved.

FILE: 07. Rats In The Cellar.flac
  Size: 35502908 Hash: 98F4A71E5F86BA5069B3C2B5F2B3B94E Accuracy: -m0
  Conclusion: CDDA 100%
  Signature: D32BFB52EA7E8E1F9EED9A45719E199BBC1015E4
FILE: 06. Sheer Heart Attack.flac
  Size: 28610745 Hash: 7A75139E3129DECAE9E918F0F741753F Accuracy: -m0
  Conclusion: CDDA 100%
  Signature: 303F47848A884ECA9DE686BF03C3E264EC63CB25
FILE: 05. Zero Day.flac
  Size: 35013558 Hash: 804C8EE6D110CF9D07D305D22B49154E Accuracy: -m0
  Conclusion: CDDA 100%
  Signature: 7AC8FB36F1280A3980D892206C6BB601D15B65BF
FILE: 04. Damnation Army.flac
  Size: 30645575 Hash: BF0AD5D985F504CF36B8F3C4487B6DBA Accuracy: -m0
  Conclusion: CDDA 100%
  Signature: 7A627303FA534C06E39346CF89EE3F6322B4AE61
FILE: 03. Catch Your Fall.flac
  Size: 33948768 Hash: BD777A7EB3249FF49F0F7E61F94B4A82 Accuracy: -m0
  Conclusion: CDDA 99%
  Signature: 1470F9065CFCF298DF9DD8A4E3E1B7B551A520EA
FILE: 02. Give It The Gun.flac
  Size: 30124578 Hash: D7C277BCE139F65384FA221713099B0E Accuracy: -m0
  Conclusion: CDDA 100%
  Signature: B0936DBAC10CD244763AE24D5D8CE8F489F7A611
FILE: 01. We Are The Damned.flac
  Size: 35117724 Hash: ECF3911209216DE12809B43E8A78FB4C Accuracy: -m0
  Conclusion: CDDA 100%
  Signature: A125BEEFAFF04709F7503C70FDB7045F455B6C9C

Время раздачи: c 20:00 до 22:00


Поглощение/вытеснение
Только с согласия релизера

Bigbeer
[NNM-Club.me]_Skid Row - Rise Of The Damnation Army - United World Rebellion - Chapter Two [ep] (2014).torrent
 Торрент: Платиновая раздача  Зарегистрирован
 
Скачать


Примагнититься
 Зарегистрирован:   22 Авг 2014 07:24:21
 Размер:   219 MB  (
 Рейтинг:   4.8 (Голосов: 22)
 Поблагодарили:   65
 Проверка:   Оформление проверено модератором 22 Авг 2014 10:53:58
Как cкачать  ·  Как раздать  ·  Правильно оформить  ·  Поднять ратио!  
kmg495
Стаж: 8 лет 9 мес.
Сообщений: 58
Ratio: 1.7
100%
Откуда: Gamerland
pirates.png
а первую часть в этом же формате можно? :3

_________________
Lenovo IdeaPad Y510P
Intel Core i7-4700QM 2.4Ghz (3.4Ghz Turbo Boost)
Dual nVidia GeForce GT 755M SLI 2GB GDDR5
16GB RAM (8x2) DDR3 Low-Voltage 1600Mhz
SSD 1TB Samsung 840 EVO
Топик был перенесен из форума Metal (Lossless) в форум Архив Музыки

Причина переноса: Длительное отсутствие сида на протяжении более 6 месяцев.

Исправил релиз - напиши ЛС chaosman1986, дав ссылку на релиз.
Если нет ответа 24 часа - нажми на кнопку "Обратить внимание модераторов".
Показать сообщения:   
Начать новую тему   Ответить на тему    Торрент-трекер NNM-Club -> Архив торрентов -> Архив Музыки Часовой пояс: GMT + 3
Страница 1 из 1