Классический форум-трекер
canvas not supported
Нас вместе: 4 165 224

In Aevum Agere - The Shadow Tower (2012) [FLAC|Lossless]<Doom Metal>


 
 
RSS
Начать новую тему   Ответить на тему    Торрент-трекер NNM-Club -> Архив торрентов -> Архив Музыки
Автор Сообщение
gatherone ®
RG Music
Стаж: 9 лет 3 мес.
Сообщений: 2656
Ratio: 185.429
Поблагодарили: 72447
9.21%
In Aevum Agere - The Shadow Tower (2012)
Год: 2012
Жанр: Doom Metal
Продолжительность: 00:53:59

Кодек: FLAC [image+.cue]
Битрейт: Lossless

Треклист:
01. Umbra Vitae - Intro [00:48]
02. The Shadow Tower [04:27]
03. Leave Me Alone (Sinite me solum) [05:21]
04. Iniquitous Judgement [05:41]
05. The Last Farewell [05:24]
06. Act of Faith [04:39]
07. Dominio [06:34]
08. Silent [03:41]
09. Il poema illusorio [06:18]
10. Ire of Solitude [05:17]
11. Son of Unknown [05:45]
Код:
REM GENRE "Doom metal"
REM DATE 2012
REM DISCID B00F290C
REM COMMENT "ExactAudioCopy v1.0b3"
PERFORMER "In Aevum Agere"
TITLE "The Shadow Tower"
FILE "In Aevum Agere - The Shadow Tower.flac" WAVE
  TRACK 01 AUDIO
    TITLE "Umbra Vitae - Intro"
    PERFORMER "In Aevum Agere"
    FLAGS DCP
    INDEX 01 00:00:00
  TRACK 02 AUDIO
    TITLE "The Shadow Tower"
    PERFORMER "In Aevum Agere"
    FLAGS DCP
    INDEX 01 00:48:08
  TRACK 03 AUDIO
    TITLE "Leave Me Alone (Sinite me solum)"
    PERFORMER "In Aevum Agere"
    FLAGS DCP
    INDEX 01 05:16:02
  TRACK 04 AUDIO
    TITLE "Iniquitous Judgement"
    PERFORMER "In Aevum Agere"
    FLAGS DCP
    INDEX 01 10:37:17
  TRACK 05 AUDIO
    TITLE "The Last Farewell"
    PERFORMER "In Aevum Agere"
    FLAGS DCP
    INDEX 01 16:18:71
  TRACK 06 AUDIO
    TITLE "Act of Faith"
    PERFORMER "In Aevum Agere"
    FLAGS DCP
    INDEX 01 21:43:15
  TRACK 07 AUDIO
    TITLE "Dominio"
    PERFORMER "In Aevum Agere"
    FLAGS DCP
    INDEX 01 26:22:62
  TRACK 08 AUDIO
    TITLE "Silent"
    PERFORMER "In Aevum Agere"
    FLAGS DCP
    INDEX 01 32:57:21
  TRACK 09 AUDIO
    TITLE "Il poema illusorio"
    PERFORMER "In Aevum Agere"
    FLAGS DCP
    INDEX 01 36:38:52
  TRACK 10 AUDIO
    TITLE "Ire of Solitude"
    PERFORMER "In Aevum Agere"
    FLAGS DCP
    INDEX 01 42:56:56
  TRACK 11 AUDIO
    TITLE "Son of Unknown"
    PERFORMER "In Aevum Agere"
    FLAGS DCP
    INDEX 01 48:14:21
Код:

Exact Audio Copy V1.0 beta 3 from 29. August 2011

EAC extraction logfile from 16. July 2014, 15:03

In Aevum Agere / The Shadow Tower

Used drive  : PIONEER BD-RW   BDR-209M   Adapter: 0  ID: 1

Read mode               : Secure
Utilize accurate stream : Yes
Defeat audio cache      : Yes
Make use of C2 pointers : No

Read offset correction                      : 667
Overread into Lead-In and Lead-Out          : Yes
Fill up missing offset samples with silence : Yes
Delete leading and trailing silent blocks   : No
Null samples used in CRC calculations       : Yes
Used interface                              : Native Win32 interface for Win NT & 2000

Used output format              : User Defined Encoder
Selected bitrate                : 1024 kBit/s
Quality                         : High
Add ID3 tag                     : No
Command line compressor         : C:\Program Files (x86)\Exact Audio Copy\FLAC\FLAC.EXE
Additional command line options : -6 -V -T "ARTIST=%artist%" -T "TITLE=%title%" -T "ALBUM=%albumtitle%" -T "DATE=%year%" -T "TRACKNUMBER=%tracknr%" -T "GENRE=%genre%" -T "COMMENT=%comment%" %source% -o %dest%

TOC of the extracted CD

     Track |   Start  |  Length  | Start sector | End sector
    ---------------------------------------------------------
        1  |  0:00.00 |  0:48.08 |         0    |     3607
        2  |  0:48.08 |  4:27.69 |      3608    |    23701
        3  |  5:16.02 |  5:21.15 |     23702    |    47791
        4  | 10:37.17 |  5:41.54 |     47792    |    73420
        5  | 16:18.71 |  5:24.19 |     73421    |    97739
        6  | 21:43.15 |  4:39.47 |     97740    |   118711
        7  | 26:22.62 |  6:34.34 |    118712    |   148295
        8  | 32:57.21 |  3:41.31 |    148296    |   164901
        9  | 36:38.52 |  6:18.04 |    164902    |   193255
       10  | 42:56.56 |  5:17.40 |    193256    |   217070
       11  | 48:14.21 |  5:45.47 |    217071    |   242992
       12  | 56:31.68 |  8:09.61 |    254393    |   291128

Range status and errors

Selected range

     Filename F:\Music\In Aevum Agere - The Shadow Tower.wav

     Peak level 100.0 %
     Extraction speed 1.2 X
     Range quality 100.0 %
     Test CRC 85EE2BB2
     Copy CRC 85EE2BB2
     Copy OK

No errors occurred

AccurateRip summary

Track  1  accurately ripped (confidence 3)  [E5272346]  (AR v2)
Track  2  accurately ripped (confidence 3)  [E905EC24]  (AR v2)
Track  3  accurately ripped (confidence 3)  [8F1CDA60]  (AR v2)
Track  4  accurately ripped (confidence 3)  [8A05FFC3]  (AR v2)
Track  5  accurately ripped (confidence 3)  [5EE5CBA1]  (AR v2)
Track  6  accurately ripped (confidence 3)  [32052405]  (AR v2)
Track  7  accurately ripped (confidence 3)  [B6CC2151]  (AR v2)
Track  8  accurately ripped (confidence 3)  [A87A8898]  (AR v2)
Track  9  accurately ripped (confidence 3)  [642E2765]  (AR v2)
Track 10  accurately ripped (confidence 3)  [F861E193]  (AR v2)
Track 11  accurately ripped (confidence 3)  [4C972A6E]  (AR v2)

All tracks accurately ripped

End of status report

---- CUETools DB Plugin V2.1.3

[CTDB TOCID: q0XdD8va7NM9oZRoeX3HLM8IGzQ-] disk not present in database, Submit result: q0XdD8va7NM9oZRoeX3HLM8IGzQ- has been uploaded

==== Log checksum F3B29980E5E65949C8E406DBAFF143D68A397CD6FF6F588D9D013AAB674A525A ====
Код:

-----------------------

DON'T MODIFY THIS FILE

-----------------------

PERFORMER: auCDtect Task Manager, ver. 1.6.0 RC1 build 1.6.0.1
Copyright (c) 2008-2010 y-soft. All rights reserved
http://y-soft.org

ANALYZER: auCDtect: CD records authenticity detector, version 0.8.2
Copyright (c) 2004 Oleg Berngardt. All rights reserved.
Copyright (c) 2004 Alexander Djourik. All rights reserved.

FILE: In Aevum Agere - The Shadow Tower.flac
  Size: 422733954 Hash: 514BC3C3E31CBE81D3E9BBFA8D0850DD Accuracy: -m0
  Conclusion: MPEG 95%
  Signature: E7FA22F863D32A014852FC0DC1AFA0F6683F0AC4
Время раздачи: 19.00 - 23.00
[NNM-Club.me]_IN AEVUM AGERE [2012] [CD] The Shadow Tower [EAC-FLAC].torrent
 Торрент: Платиновая раздача  Зарегистрирован
 
Скачать


Примагнититься
 Зарегистрирован:   03 Сен 2014 20:34:33
 Размер:   409 MB  (
 Рейтинг:    (Голосов: 8)
 Поблагодарили:   29
 Проверка:   Оформление проверено модератором 04 Сен 2014 06:36:55
Как cкачать  ·  Как раздать  ·  Правильно оформить  ·  Поднять ратио!  
Топик был перенесен из форума Metal (Lossless) в форум Архив Музыки

Причина переноса: Длительное отсутствие сида на протяжении более 6 месяцев.

Исправил релиз - напиши ЛС chaosman1986, дав ссылку на релиз.
Если нет ответа 24 часа - нажми на кнопку "Обратить внимание модераторов".
Показать сообщения:   
Начать новую тему   Ответить на тему    Торрент-трекер NNM-Club -> Архив торрентов -> Архив Музыки Часовой пояс: GMT + 3
Страница 1 из 1