Классический форум-трекер
canvas not supported
Нас вместе: 4 166 455

Rebellion - Sagas of Iceland - The History of the Vikings - Volume I (2005) [FLAC|Lossless]<Heavy/Power Metal>


 
 
RSS
Начать новую тему   Ответить на тему    Торрент-трекер NNM-Club -> Архив торрентов -> Архив Музыки
Автор Сообщение
gatherone ®
RG Music
Стаж: 9 лет 3 мес.
Сообщений: 2657
Ratio: 185.683
Поблагодарили: 72498
9.19%
Rebellion - Sagas of Iceland - The History of the Vikings - Volume I (2005)
Год: 2005
Жанр: Heavy/Power Metal
Label & Catalog#: Massacre Records - MAS CD0478
Продолжительность: 01:03:39

Кодек: FLAC [image+.cue]
Битрейт: Lossless

Треклист:
01. In Memorandum Lindisfarnae [01:45]
02. Yngling Saga (To Odin We Call) [07:12]
03. The Sons Of The Dragon Slayer (Blood Eagle) [04:21]
04. Ragnhild's Dream [04:33]
05. Harald Harfager [06:36]
06. Eric The Red [05:57]
07. Freedom (The Saga Of Gang Hrolf) [04:48]
08. Treason [05:28]
09. Sword In The Storm (The Saga Of Earl Hakon, Protector Of Norway) [05:02]
10. Blood Rains (The Saga Of King Olaf Trygvason) [04:27]
11. Ruling The Waves [05:01]
12. Canute The Great (The King Of Danish Pride) [04:03]
13. Harald Hadrade [04:20]
Код:

REM GENRE "Heavy/Power Metal"
REM DATE 2005
REM DISCID A70EEB0D
REM COMMENT "ExactAudioCopy v0.99pb5"
PERFORMER "Rebellion"
TITLE "Sagas Of Iceland - The History Of The Vikings Volume I"
FILE "Rebellion - Sagas Of Iceland - The History Of The Vikings Volume I.flac" WAVE
  TRACK 01 AUDIO
    TITLE "In Memorandum Lindisfarnae"
    PERFORMER "Rebellion"
    INDEX 01 00:00:00
  TRACK 02 AUDIO
    TITLE "Yngling Saga (To Odin We Call)"
    PERFORMER "Rebellion"
    INDEX 01 01:45:53
  TRACK 03 AUDIO
    TITLE "The Sons Of The Dragon Slayer (Blood Eagle)"
    PERFORMER "Rebellion"
    INDEX 01 08:57:73
  TRACK 04 AUDIO
    TITLE "Ragnhild's Dream"
    PERFORMER "Rebellion"
    INDEX 01 13:19:41
  TRACK 05 AUDIO
    TITLE "Harald Harfager"
    PERFORMER "Rebellion"
    INDEX 01 17:52:57
  TRACK 06 AUDIO
    TITLE "Eric The Red"
    PERFORMER "Rebellion"
    INDEX 01 24:29:48
  TRACK 07 AUDIO
    TITLE "Freedom (The Saga Of Gang Hrolf)"
    PERFORMER "Rebellion"
    INDEX 01 30:26:52
  TRACK 08 AUDIO
    TITLE "Treason"
    PERFORMER "Rebellion"
    INDEX 01 35:15:22
  TRACK 09 AUDIO
    TITLE "Sword In The Storm (The Saga Of Earl Hakon, Protector Of Norway)"
    PERFORMER "Rebellion"
    INDEX 01 40:44:14
  TRACK 10 AUDIO
    TITLE "Blood Rains (The Saga Of King Olaf Trygvason)"
    PERFORMER "Rebellion"
    INDEX 01 45:46:69
  TRACK 11 AUDIO
    TITLE "Ruling The Waves"
    PERFORMER "Rebellion"
    INDEX 01 50:14:02
  TRACK 12 AUDIO
    TITLE "Canute The Great (The King Of Danish Pride)"
    PERFORMER "Rebellion"
    INDEX 01 55:15:74
  TRACK 13 AUDIO
    TITLE "Harald Hadrade"
    PERFORMER "Rebellion"
    INDEX 01 59:19:57
Код:

Exact Audio Copy V0.99 prebeta 5 from 4. May 2009

EAC extraction logfile from 16. June 2013, 12:15

Rebellion / Sagas Of Iceland - The History Of The Vikings Volume I

Used drive  : ATAPI   iHAP122   9   Adapter: 3  ID: 0

Read mode               : Secure
Utilize accurate stream : Yes
Defeat audio cache      : Yes
Make use of C2 pointers : No

Read offset correction                      : 6
Overread into Lead-In and Lead-Out          : No
Fill up missing offset samples with silence : Yes
Delete leading and trailing silent blocks   : No
Null samples used in CRC calculations       : Yes
Used interface                              : Installed external ASPI interface

Used output format              : User Defined Encoder
Selected bitrate                : 40 kBit/s
Quality                         : High
Add ID3 tag                     : No
Command line compressor         : C:\Program Files\Exact Audio Copy\Flac\flac.exe
Additional command line options : -6 -V %s

TOC of the extracted CD

     Track |   Start  |  Length  | Start sector | End sector
    ---------------------------------------------------------
        1  |  0:00.00 |  1:45.53 |         0    |     7927
        2  |  1:45.53 |  7:12.20 |      7928    |    40347
        3  |  8:57.73 |  4:21.43 |     40348    |    59965
        4  | 13:19.41 |  4:33.16 |     59966    |    80456
        5  | 17:52.57 |  6:36.66 |     80457    |   110222
        6  | 24:29.48 |  5:57.04 |    110223    |   137001
        7  | 30:26.52 |  4:48.45 |    137002    |   158646
        8  | 35:15.22 |  5:28.67 |    158647    |   183313
        9  | 40:44.14 |  5:02.55 |    183314    |   206018
       10  | 45:46.69 |  4:27.08 |    206019    |   226051
       11  | 50:14.02 |  5:01.72 |    226052    |   248698
       12  | 55:15.74 |  4:03.58 |    248699    |   266981
       13  | 59:19.57 |  4:20.05 |    266982    |   286486

Range status and errors

Selected range

     Filename D:\Download\Rebellion - Sagas Of Iceland - The History Of The Vikings Volume I.wav

     Peak level 100.0 %
     Range quality 100.0 %
     Copy CRC D42AB486
     Copy OK

No errors occurred

AccurateRip summary

Track  1  accurately ripped (confidence 6)  [61D93D70]
Track  2  accurately ripped (confidence 6)  [F6086630]
Track  3  accurately ripped (confidence 6)  [A949F9F3]
Track  4  accurately ripped (confidence 6)  [00317023]
Track  5  accurately ripped (confidence 6)  [B9F2D657]
Track  6  accurately ripped (confidence 6)  [370C32B3]
Track  7  accurately ripped (confidence 6)  [E95193D0]
Track  8  accurately ripped (confidence 6)  [0B9DB56A]
Track  9  accurately ripped (confidence 6)  [71CE1BB3]
Track 10  accurately ripped (confidence 6)  [A86B0A52]
Track 11  accurately ripped (confidence 6)  [FF7BA84C]
Track 12  accurately ripped (confidence 6)  [D8B92652]
Track 13  accurately ripped (confidence 6)  [36BC65DA]

All tracks accurately ripped

End of status report
Код:

-----------------------

DON'T MODIFY THIS FILE

-----------------------

PERFORMER: auCDtect Task Manager, ver. 1.6.0 RC1 build 1.6.0.1
Copyright (c) 2008-2010 y-soft. All rights reserved
http://y-soft.org

ANALYZER: auCDtect: CD records authenticity detector, version 0.8.2
Copyright (c) 2004 Oleg Berngardt. All rights reserved.
Copyright (c) 2004 Alexander Djourik. All rights reserved.

FILE: Rebellion - Sagas Of Iceland - The History Of The Vikings Volume I.flac
  Size: 498244253 Hash: 79EEFF7621047E30128A44BD14467E69 Accuracy: -m0
  Conclusion: CDDA 100%
  Signature: 52A323C392B3702E574A951AD81166AA7AB6DB95
Время раздачи: 19.00 - 23.00


Поглощение/вытеснение
Только с согласия релизера

Pashketan
[NNM-Club.me]_REBELLION [2005] [CD] Sagas Of Iceland - The History Of The Vikings Volume I [EAC-FLAC].torrent
 Торрент: Платиновая раздача  Зарегистрирован
 
Скачать


Примагнититься
 Зарегистрирован:   05 Сен 2014 15:09:44
 Размер:   583 MB  (
 Рейтинг:   4.7 (Голосов: 13)
 Поблагодарили:   36
 Проверка:   Оформление проверено модератором 06 Сен 2014 07:32:20
Как cкачать  ·  Как раздать  ·  Правильно оформить  ·  Поднять ратио!  
Топик был перенесен из форума Metal (Lossless) в форум Архив Музыки

Причина переноса: Длительное отсутствие сида на протяжении более 6 месяцев.

Исправил релиз - напиши ЛС chaosman1986, дав ссылку на релиз.
Если нет ответа 24 часа - нажми на кнопку "Обратить внимание модераторов".
Показать сообщения:   
Начать новую тему   Ответить на тему    Торрент-трекер NNM-Club -> Архив торрентов -> Архив Музыки Часовой пояс: GMT + 3
Страница 1 из 1