Классический форум-трекер
canvas not supported
Нас вместе: 4 172 725

Не говори ни слова / Don't Say a Word (2001) HDRip [AVO]


 
 
RSS
Начать новую тему   Ответить на тему    Торрент-трекер NNM-Club -> Зарубежное кино -> Зарубежные Фильмы (SD)
Автор Сообщение
K.E.N ®
Стаж: 8 лет 7 мес.
Сообщений: 4417
Ratio: 138.04
Поблагодарили: 439861
100%
Откуда: Mordor
pirates.png
Не говори ни слова / Don't Say a Word (2001) HDRip
Год выпуска: 2001
Производство: США, Австралия, Швейцария, Канада
Жанр: Триллер, Драма, Криминал

Описание фильма:
«Вы хотите того же, что они?… Я никогда не скажу… никому из вас» — вот первые слова Элизабет, обращенные к знаменитому психиатру Натану Конраду. Элизабет, замкнутая в себе девушка, страдающая припадками немотивированной агрессии, причину которой никто до сих пор не смог объяснить и, тем более, устранить.

Режиссер: Гэри Фледер
Продюсер: Энн Копельсон, Арнольд Копельсон, Арнон Милчэн
Актеры: Майкл Дуглас, Шон Бин, Бриттани Мёрфи, Скай МакКоул Бартусяк, Гай Торри, Дженнифер Эспозито, Шоун Дойл, Виктор Арго, Конрад Гуд, Пол Шульц, Лэнс Реддик, Фамке Янссен, Оливер Плэтт, Эйдан Дивайн, Алекс Кэмпбелл, Филип ДеУайлд, Сэм Монтесаноо

Перевод: Авторский (одноголосый закадровый)
Автор перевода: А.Ю.Гаврилов
Язык субтитров: отсутствуют



Дата мировой премьеры: 24 сентября 2001
Дата российской премьеры: 29 ноября 2001, «Гемини Киномир»
Дата выхода DVD релиза: 31 января 2006, «Гемини-Фильм»
Дата выхода Blu-Ray релиза: 6 октября 2011, «Двадцатый Век Фокс СНГ»

Продолжительность: 01:53:35
Качество видео: HDRip

Видео: MPEG4, XviD, 720x304 (2.35:1), 23.976 fps, 1 382 Kbps (0.263 bit/pixel)
Аудио: AC-3, 48.0 KHz, 6 ch, 448 Kbps, CBR
За звуковую дорожку спасибо gross1978
За голос Гаврилова огромное спасибо dunhill200.
Format : AVI
Format/Info : Audio Video Interleave
File size : 1.46 GiB
Duration : 1h 53mn
Overall bit rate : 1 839 Kbps
Writing application : VirtualDubModRus 1.5.10.2 (build 2542/release)
Writing library : VirtualDubMod build 2542/release

Video
ID : 0
Format : MPEG-4 Visual
Format profile : Advanced Simple@L5
Format settings, BVOP : 1
Format settings, QPel : No
Format settings, GMC : No warppoints
Format settings, Matrix : Default (MPEG)
Muxing mode : Packed bitstream
Codec ID : XVID
Codec ID/Hint : XviD
Duration : 1h 53mn
Bit rate : 1 382 Kbps
Width : 720 pixels
Height : 304 pixels
Display aspect ratio : 2.35:1
Frame rate : 23.976 fps
Color space : YUV
Chroma subsampling : 4:2:0
Bit depth : 8 bits
Scan type : Progressive
Compression mode : Lossy
Bits/(Pixel*Frame) : 0.263
Stream size : 1.10 GiB (75%)
Writing library : XviD 1.2.1 (UTC 2008-12-04)

Audio
ID : 1
Format : AC-3
Format/Info : Audio Coding 3
Mode extension : CM (complete main)
Format settings, Endianness : Big
Codec ID : 2000
Duration : 1h 53mn
Bit rate mode : Constant
Bit rate : 448 Kbps
Channel(s) : 6 channels
Channel positions : Front: L C R, Side: L R, LFE
Sampling rate : 48.0 KHz
Bit depth : 16 bits
Compression mode : Lossy
Stream size : 364 MiB (24%)
Alignment : Split accross interleaves
Interleave, duration : 42 ms (1.00 video frame)
Interleave, preload duration : 500 ms
Title : Авторский А.Гаврилов

Скриншоты:


Время раздачи: с 10:00 до 18:30 (до 3-х скачавших)
[NNM-Club.me]_Ne govori ni slova.avi.torrent
 Торрент: Платиновая раздача  Зарегистрирован
 
Скачать


Примагнититься
 Зарегистрирован:   12 Сен 2014 13:07:25
 Размер:   1.46 GB  (
 Рейтинг:   4.6 (Голосов: 21)
 Поблагодарили:   109
 Проверка:   Оформление проверено модератором 13 Сен 2014 07:12:00
Поддержка меня и моих релизов
***МОЖНО ЗДЕСЬ!***

******************************
Как cкачать  ·  Как раздать  ·  Правильно оформить  ·  Поднять ратио!  
mardatova
Стаж: 9 лет 10 мес.
Сообщений: 278
Ratio: 85.399
100%
спасибо
Показать сообщения:   
Начать новую тему   Ответить на тему    Торрент-трекер NNM-Club -> Зарубежное кино -> Зарубежные Фильмы (SD) Часовой пояс: GMT + 3
Страница 1 из 1