Классический форум-трекер
canvas not supported
Нас вместе: 4 166 420

Rebellion - Arise - From Ginnungagap To Ragnarok (2009) [APE|Lossless]<Heavy/Power Metal>


 
 
RSS
Начать новую тему   Ответить на тему    Торрент-трекер NNM-Club -> Архив торрентов -> Архив Музыки
Автор Сообщение
gatherone ®
RG Music
Стаж: 9 лет 3 мес.
Сообщений: 2657
Ratio: 185.659
Поблагодарили: 72498
9.19%
Rebellion - Arise - From Ginnungagap To Ragnarok (2009)
Год: 2009
Жанр: Heavy/Power Metal
Label & Catalog#: Massacre Records - MAS CL0595
Продолжительность: 00:59:07

Кодек: APE [imafe+.cue]
Битрейт: Lossless

Треклист:
01. War [03:53]
02. Arise [04:38]
03. Asgard [03:18]
04. Odin [04:36]
05. Runes [05:14]
06. Bolverk [03:15]
07. Thor [09:06]
08. Evil [04:09]
09. Loki [04:09]
10. Prelude [03:41]
11. Ragnarok [05:41]
12. Einherjar [07:21]
Код:
REM GENRE "Power Metal"
REM DATE 2009
REM DISCID 9F0DDB0C
REM COMMENT "ExactAudioCopy v0.99pb4"
PERFORMER "Rebellion"
TITLE "Arise - From Ginnungagap To Ragnarok"
FILE "Rebellion - Arise - From Ginnungagap To Ragnarok.ape" WAVE
  TRACK 01 AUDIO
    TITLE "War"
    PERFORMER "Rebellion"
    FLAGS DCP
    INDEX 01 00:00:00
  TRACK 02 AUDIO
    TITLE "Arise"
    PERFORMER "Rebellion"
    FLAGS DCP
    INDEX 01 03:53:06
  TRACK 03 AUDIO
    TITLE "Asgard"
    PERFORMER "Rebellion"
    FLAGS DCP
    INDEX 01 08:31:67
  TRACK 04 AUDIO
    TITLE "Odin"
    PERFORMER "Rebellion"
    FLAGS DCP
    INDEX 01 11:50:07
  TRACK 05 AUDIO
    TITLE "Runes"
    PERFORMER "Rebellion"
    FLAGS DCP
    INDEX 01 16:26:09
  TRACK 06 AUDIO
    TITLE "Bolverk"
    PERFORMER "Rebellion"
    FLAGS DCP
    INDEX 01 21:40:38
  TRACK 07 AUDIO
    TITLE "Thor"
    PERFORMER "Rebellion"
    FLAGS DCP
    INDEX 01 24:56:35
  TRACK 08 AUDIO
    TITLE "Evil"
    PERFORMER "Rebellion"
    FLAGS DCP
    INDEX 01 34:03:23
  TRACK 09 AUDIO
    TITLE "Loki"
    PERFORMER "Rebellion"
    FLAGS DCP
    INDEX 01 38:12:51
  TRACK 10 AUDIO
    TITLE "Prelude"
    PERFORMER "Rebellion"
    FLAGS DCP
    INDEX 01 42:22:48
  TRACK 11 AUDIO
    TITLE "Ragnarok"
    PERFORMER "Rebellion"
    FLAGS DCP
    INDEX 01 46:04:23
  TRACK 12 AUDIO
    TITLE "Einherjar"
    PERFORMER "Rebellion"
    FLAGS DCP
    INDEX 01 51:45:48
Код:

Exact Audio Copy V0.99 prebeta 4 from 23. January 2008

EAC extraction logfile from 5. August 2009, 2:27

Rebellion / Arise - From Ginnungagap To Ragnarok

Used drive  : ATAPI   DVD A  DH20A4P   Adapter: 3  ID: 0

Read mode               : Secure
Utilize accurate stream : Yes
Defeat audio cache      : Yes
Make use of C2 pointers : No

Read offset correction                      : 6
Overread into Lead-In and Lead-Out          : No
Fill up missing offset samples with silence : Yes
Delete leading and trailing silent blocks   : No
Null samples used in CRC calculations       : Yes
Used interface                              : Installed external ASPI interface

Used output format              : Monkey's Audio Lossless Encoder
Selected bitrate                : High Lossless Compression
Quality                         : High
Add ID3 tag                     : Yes
Command line compressor         : C:\Program Files\Monkey's Audio\MAC.exe

TOC of the extracted CD

     Track |   Start  |  Length  | Start sector | End sector
    ---------------------------------------------------------
        1  |  0:00.00 |  3:53.06 |         0    |    17480
        2  |  3:53.06 |  4:38.61 |     17481    |    38391
        3  |  8:31.67 |  3:18.15 |     38392    |    53256
        4  | 11:50.07 |  4:36.02 |     53257    |    73958
        5  | 16:26.09 |  5:14.29 |     73959    |    97537
        6  | 21:40.38 |  3:15.72 |     97538    |   112234
        7  | 24:56.35 |  9:06.63 |    112235    |   153247
        8  | 34:03.23 |  4:09.28 |    153248    |   171950
        9  | 38:12.51 |  4:09.72 |    171951    |   190697
       10  | 42:22.48 |  3:41.50 |    190698    |   207322
       11  | 46:04.23 |  5:41.25 |    207323    |   232922
       12  | 51:45.48 |  7:21.62 |    232923    |   266059

Range status and errors

Selected range

     Filename D:\Download\Rebellion - Arise - From Ginnungagap To Ragnarok.wav

     Peak level 100.0 %
     Range quality 99.9 %
     Copy CRC B32CD86B
     Copy OK

No errors occurred

AccurateRip summary

Track  1  not present in database
Track  2  not present in database
Track  3  not present in database
Track  4  not present in database
Track  5  not present in database
Track  6  not present in database
Track  7  not present in database
Track  8  not present in database
Track  9  not present in database
Track 10  not present in database
Track 11  not present in database
Track 12  not present in database

None of the tracks are present in the AccurateRip database

End of status report
Код:

-----------------------

DON'T MODIFY THIS FILE

-----------------------

PERFORMER: auCDtect Task Manager, ver. 1.6.0 RC1 build 1.6.0.1
Copyright (c) 2008-2010 y-soft. All rights reserved
http://y-soft.org

ANALYZER: auCDtect: CD records authenticity detector, version 0.8.2
Copyright (c) 2004 Oleg Berngardt. All rights reserved.
Copyright (c) 2004 Alexander Djourik. All rights reserved.

FILE: Rebellion - Arise - From Ginnungagap To Ragnarok.ape
  Size: 455312552 Hash: EB437A526629BA4716853CBA258B1CC0 Accuracy: -m0
  Conclusion: CDDA 100%
  Signature: E2050E1FE983B07CADC06CC2298980E0002C0D9D
Время раздачи: 19.00 - 23.00
[NNM-Club.me]_REBELLION [2009] [CD] Arise - From Ginnungagap To Ragnarok [EAC-APE].torrent
 Торрент: Платиновая раздача  Зарегистрирован
 
Скачать


Примагнититься
 Зарегистрирован:   04 Окт 2014 15:28:50
 Размер:   541 MB  (
 Рейтинг:   3.8 (Голосов: 14)
 Поблагодарили:   30
 Проверка:   Оформление проверено модератором 05 Окт 2014 05:56:18
Как cкачать  ·  Как раздать  ·  Правильно оформить  ·  Поднять ратио!  
Топик был перенесен из форума Metal (Lossless) в форум Архив Музыки

Причина переноса: Длительное отсутствие сида на протяжении более 6 месяцев.

Исправил релиз - напиши ЛС chaosman1986, дав ссылку на релиз.
Если нет ответа 24 часа - нажми на кнопку "Обратить внимание модераторов".
Показать сообщения:   
Начать новую тему   Ответить на тему    Торрент-трекер NNM-Club -> Архив торрентов -> Архив Музыки Часовой пояс: GMT + 3
Страница 1 из 1