Классический форум-трекер
canvas not supported
Нас вместе: 4 166 230

Fatima Hill - The Snow Tower (2009) [APE|Lossless]<Progressive Power Metal>


 
 
RSS
Начать новую тему   Ответить на тему    Торрент-трекер NNM-Club -> Архив торрентов -> Архив Музыки
Автор Сообщение
gatherone ®
RG Music
Стаж: 9 лет 3 мес.
Сообщений: 2657
Ratio: 185.659
Поблагодарили: 72496
9.19%
Fatima Hill - The Snow Tower (2009)
Год: 2009
Жанр: Progressive Power Metal
Label & Catalog#: Worldchaos Production (KDM-026)
Продолжительность: 00:47:30

Кодек: APE [image+cue]
Битрейт: Lossless

Треклист:
01. The snow tower [07:33]
02. Memento [06:22]
03. Arabian daughter say [04:21]
04. Gohst [07:04]
05. Down to Earth (Paradise lost 8109) [03:59]
06. Passing bell part2 [03:48]
07. The world [07:03]
08. Aino-Uta [07:17]
Код:
REM GENRE "Progressive Power Metal"
REM DATE 2009
REM DISCID 720B2208
REM COMMENT "ExactAudioCopy v0.99pb5"
PERFORMER "FATIMA HILL"
TITLE "The Snow Tower"
FILE "FATIMA HILL - The Snow Tower.ape" WAVE
  TRACK 01 AUDIO
    TITLE "The snow tower"
    PERFORMER "FATIMA HILL"
    INDEX 01 00:00:00
  TRACK 02 AUDIO
    TITLE "Memento"
    PERFORMER "FATIMA HILL"
    INDEX 01 07:33:00
  TRACK 03 AUDIO
    TITLE "Arabian daughter say"
    PERFORMER "FATIMA HILL"
    INDEX 01 13:55:33
  TRACK 04 AUDIO
    TITLE "Gohst"
    PERFORMER "FATIMA HILL"
    INDEX 01 18:17:07
  TRACK 05 AUDIO
    TITLE "Down to Earth (Paradise lost 8109)"
    PERFORMER "FATIMA HILL"
    INDEX 01 25:21:66
  TRACK 06 AUDIO
    TITLE "Passing bell part2"
    PERFORMER "FATIMA HILL"
    INDEX 01 29:21:49
  TRACK 07 AUDIO
    TITLE "The world"
    PERFORMER "FATIMA HILL"
    INDEX 01 33:10:07
  TRACK 08 AUDIO
    TITLE "Aino-Uta"
    PERFORMER "FATIMA HILL"
    INDEX 00 40:12:54
    INDEX 01 40:13:54
Код:

Exact Audio Copy V0.99 prebeta 5 from 4. May 2009

EAC extraction logfile from 28. July 2010, 18:41

FATIMA HILL / The Snow Tower

Used drive  : ASUS    CB-5216A   Adapter: 6  ID: 0

Read mode               : Secure
Utilize accurate stream : Yes
Defeat audio cache      : Yes
Make use of C2 pointers : No

Read offset correction                      : 6
Overread into Lead-In and Lead-Out          : No
Fill up missing offset samples with silence : Yes
Delete leading and trailing silent blocks   : No
Null samples used in CRC calculations       : Yes
Used interface                              : Native Win32 interface for Win NT & 2000

Used output format              : Monkey's Audio Lossless Encoder
Selected bitrate                : Normal Lossless Compression
Quality                         : High
Add ID3 tag                     : No
Command line compressor         : C:\Program Files\Monkey's Audio\MAC.exe
Additional command line options : -6 -V -T "ARTIST=%a" -T "TITLE=%t" -T "ALBUM=%g" -T "DATE=%y" -T "TRACKNUMBER=%n" -T "GENRE=%m" -T "COMMENT=%e" %s -o %d

TOC of the extracted CD

     Track |   Start  |  Length  | Start sector | End sector
    ---------------------------------------------------------
        1  |  0:00.00 |  7:33.00 |         0    |    33974
        2  |  7:33.00 |  6:22.33 |     33975    |    62657
        3  | 13:55.33 |  4:21.49 |     62658    |    82281
        4  | 18:17.07 |  7:04.59 |     82282    |   114140
        5  | 25:21.66 |  3:59.58 |    114141    |   132123
        6  | 29:21.49 |  3:48.33 |    132124    |   149256
        7  | 33:10.07 |  7:03.47 |    149257    |   181028
        8  | 40:13.54 |  7:17.06 |    181029    |   213809

Range status and errors

Selected range

     Filename K:\DEN@K\MeTaLMaDNeSS\FATIMA HILL - The Snow Tower 2009\FATIMA HILL - The Snow Tower.wav

     Peak level 97.7 %
     Range quality 99.9 %
     Test CRC 898D534C
     Copy CRC 898D534C
     Copy OK

No errors occurred

AccurateRip summary

Track  1  not present in database
Track  2  not present in database
Track  3  not present in database
Track  4  not present in database
Track  5  not present in database
Track  6  not present in database
Track  7  not present in database
Track  8  not present in database

None of the tracks are present in the AccurateRip database

End of status report
Код:

-----------------------

DON'T MODIFY THIS FILE

-----------------------

PERFORMER: auCDtect Task Manager, ver. 1.6.0 RC1 build 1.6.0.1
Copyright (c) 2008-2010 y-soft. All rights reserved
http://y-soft.org

ANALYZER: auCDtect: CD records authenticity detector, version 0.8.2
Copyright (c) 2004 Oleg Berngardt. All rights reserved.
Copyright (c) 2004 Alexander Djourik. All rights reserved.

FILE: FATIMA HILL - The Snow Tower.ape
  Size: 334615568 Hash: 8BE3FB84E6C2E929E689C603FA8545F8 Accuracy: -m0
  Conclusion: CDDA 100%
  Signature: 4708A56221431F5765616FAED0C3DE9130A10B96
Время раздачи: 19.00 - 23.00


Поглощение/вытеснение
Только с согласия релизера

Pashketan
[NNM-Club.me]_FATIMA HILL [2009] [CD] The Snow Tower [EAC-APE].torrent
 Торрент: Платиновая раздача  Зарегистрирован
 
Скачать


Примагнититься
 Зарегистрирован:   01 Ноя 2014 20:46:33
 Размер:   370 MB  (
 Рейтинг:    (Голосов: 9)
 Поблагодарили:   26
 Проверка:   Оформление проверено модератором 02 Ноя 2014 11:29:55
Как cкачать  ·  Как раздать  ·  Правильно оформить  ·  Поднять ратио!  
Топик был перенесен из форума Metal (Lossless) в форум Архив Музыки

Причина переноса: Длительное отсутствие сида на протяжении более 6 месяцев.

Исправил релиз - напиши ЛС chaosman1986, дав ссылку на релиз.
Если нет ответа 24 часа - нажми на кнопку "Обратить внимание модераторов".
Показать сообщения:   
Начать новую тему   Ответить на тему    Торрент-трекер NNM-Club -> Архив торрентов -> Архив Музыки Часовой пояс: GMT + 3
Страница 1 из 1