Классический форум-трекер
canvas not supported
Нас вместе: 4 166 418

Halcyon Way - Building the Towers (2010) [FLAC|Lossless]<Melodic Power / Thrash / Groove / Progressive Metal>


 
 
RSS
Начать новую тему   Ответить на тему    Торрент-трекер NNM-Club -> Архив торрентов -> Архив Музыки
Автор Сообщение
gatherone ®
RG Music
Стаж: 9 лет 3 мес.
Сообщений: 2657
Ratio: 185.659
Поблагодарили: 72498
9.19%
Halcyon Way - Building the Towers (2010)
Год: 2010
Жанр: Melodic Power / Thrash / Groove / Progressive Metal
Label & Catalog#: Nightmare Records NMR-550
Продолжительность: 00:59:17

Кодек: FLAC [image+cue]
Битрейт: Lossless

Треклист:
01. Rise to Revise [05:40]
02. Death of a Dream [06:01]
03. The Age of Betrayal [05:13]
04. The System [05:02]
05. Inversion [05:49]
06. Mouth Without a Head [05:40]
07. Desecration Day [05:09]
08. Icon of Resolution [05:45]
09. Inside Looking Out (The Icon & the Ghost) [08:20]
10. Building the Towers [06:32]
Код:
REM GENRE Melodic Power / Thrash / Groove / Progressive Metal
REM DATE 2010
REM DISCID 7F0DE50A
REM COMMENT "ExactAudioCopy v0.99pb5"
PERFORMER "Halcyon Way"
TITLE "Building the Towers"
FILE "Halcyon Way - Building the Towers.flac" WAVE
  TRACK 01 AUDIO
    TITLE "Rise to Revise"
    PERFORMER "Halcyon Way"
    FLAGS DCP
    INDEX 01 00:00:00
  TRACK 02 AUDIO
    TITLE "Death of a Dream"
    PERFORMER "Halcyon Way"
    FLAGS DCP
    INDEX 01 05:40:42
  TRACK 03 AUDIO
    TITLE "The Age of Betrayal"
    PERFORMER "Halcyon Way"
    FLAGS DCP
    INDEX 01 11:41:45
  TRACK 04 AUDIO
    TITLE "The System"
    PERFORMER "Halcyon Way"
    FLAGS DCP
    INDEX 01 16:55:20
  TRACK 05 AUDIO
    TITLE "Inversion"
    PERFORMER "Halcyon Way"
    FLAGS DCP
    INDEX 01 21:57:66
  TRACK 06 AUDIO
    TITLE "Mouth Without a Head"
    PERFORMER "Halcyon Way"
    FLAGS DCP
    INDEX 01 27:47:26
  TRACK 07 AUDIO
    TITLE "Desecration Day"
    PERFORMER "Halcyon Way"
    FLAGS DCP
    INDEX 01 33:27:73
  TRACK 08 AUDIO
    TITLE "Icon of Resolution"
    PERFORMER "Halcyon Way"
    FLAGS DCP
    INDEX 01 38:37:25
  TRACK 09 AUDIO
    TITLE "Inside Looking Out (The Icon & the Ghost)"
    PERFORMER "Halcyon Way"
    FLAGS DCP
    INDEX 01 44:23:11
  TRACK 10 AUDIO
    TITLE "Building the Towers"
    PERFORMER "Halcyon Way"
    FLAGS DCP
    INDEX 01 52:44:09
Код:

Exact Audio Copy V0.99 prebeta 5 from 4. May 2009

EAC extraction logfile from 26. October 2010, 14:01

Halcyon Way / Building the Towers

Used drive  : _NEC    DVD_RW ND-3540A   Adapter: 0  ID: 0

Read mode               : Secure
Utilize accurate stream : Yes
Defeat audio cache      : Yes
Make use of C2 pointers : No

Read offset correction                      : 48
Overread into Lead-In and Lead-Out          : No
Fill up missing offset samples with silence : Yes
Delete leading and trailing silent blocks   : No
Null samples used in CRC calculations       : Yes
Used interface                              : Native Win32 interface for Win NT & 2000

Used output format              : User Defined Encoder
Selected bitrate                : 40 kBit/s
Quality                         : High
Add ID3 tag                     : No
Command line compressor         : C:\Program Files\Exact Audio Copy\FLAC.EXE
Additional command line options : -6 -V %s

TOC of the extracted CD

     Track |   Start  |  Length  | Start sector | End sector
    ---------------------------------------------------------
        1  |  0:00.00 |  5:40.42 |         0    |    25541
        2  |  5:40.42 |  6:01.03 |     25542    |    52619
        3  | 11:41.45 |  5:13.50 |     52620    |    76144
        4  | 16:55.20 |  5:02.46 |     76145    |    98840
        5  | 21:57.66 |  5:49.35 |     98841    |   125050
        6  | 27:47.26 |  5:40.47 |    125051    |   150597
        7  | 33:27.73 |  5:09.27 |    150598    |   173799
        8  | 38:37.25 |  5:45.61 |    173800    |   199735
        9  | 44:23.11 |  8:20.73 |    199736    |   237308
       10  | 52:44.09 |  6:32.68 |    237309    |   266776

Range status and errors

Selected range

     Filename E:\HALCYON WAY [2010] [CD] Building the Towers (Digipack) [EAC-FLAC] by snecy [MeTaLMaDNeSS.TeaM]\Halcyon Way - Building the Towers.wav

     Peak level 97.0 %
     Range quality 100.0 %
     Copy CRC 59B2BC2D
     Copy OK

No errors occurred

AccurateRip summary

Track  1  not present in database
Track  2  not present in database
Track  3  not present in database
Track  4  not present in database
Track  5  not present in database
Track  6  not present in database
Track  7  not present in database
Track  8  not present in database
Track  9  not present in database
Track 10  not present in database

None of the tracks are present in the AccurateRip database

End of status report
Код:

-----------------------

DON'T MODIFY THIS FILE

-----------------------

PERFORMER: auCDtect Task Manager, ver. 1.6.0 RC1 build 1.6.0.1
Copyright (c) 2008-2010 y-soft. All rights reserved
http://y-soft.org

ANALYZER: auCDtect: CD records authenticity detector, version 0.8.2
Copyright (c) 2004 Oleg Berngardt. All rights reserved.
Copyright (c) 2004 Alexander Djourik. All rights reserved.

FILE: Halcyon Way - Building the Towers.flac
  Size: 463587839 Hash: 0F9238B3F91B469D4A7A2955AE2A3831 Accuracy: -m0
  Conclusion: CDDA 100%
  Signature: ADF4918723DE95A326626F5B151A3F032DC0DD1A
Время раздачи: 19.00 - 23.00


Поглощение/вытеснение
Только с согласия релизера

Bigbeer
[NNM-Club.me]_HALCYON WAY [2010] [CD] Building the Towers (Digipack) [EAC-FLAC].torrent
 Торрент: Платиновая раздача  Зарегистрирован
 
Скачать


Примагнититься
 Зарегистрирован:   04 Ноя 2014 17:58:39
 Размер:   498 MB  (
 Рейтинг:    (Голосов: 9)
 Поблагодарили:   25
 Проверка:   Оформление проверено модератором 05 Ноя 2014 06:52:30
Как cкачать  ·  Как раздать  ·  Правильно оформить  ·  Поднять ратио!  
Топик был перенесен из форума Metal (Lossless) в форум Архив Музыки

Причина переноса: Длительное отсутствие сида на протяжении более 6 месяцев.

Исправил релиз - напиши ЛС chaosman1986, дав ссылку на релиз.
Если нет ответа 24 часа - нажми на кнопку "Обратить внимание модераторов".
Показать сообщения:   
Начать новую тему   Ответить на тему    Торрент-трекер NNM-Club -> Архив торрентов -> Архив Музыки Часовой пояс: GMT + 3
Страница 1 из 1