Классический форум-трекер
canvas not supported
Нас вместе: 4 078 013

Ровер / The Rover (2014) HDRip


Страницы:   Пред.  1, 2, 3 
 
RSS
Начать новую тему   Ответить на тему    Торрент-трекер NNM-Club -> Зарубежное кино -> Зарубежные Фильмы (HD*Rip/LQ, DVDRip, SATRip, VHSRip)
Автор Сообщение
ra3wa ®
Модератор Видео
RG Releasers
Uploader 100+
 
Стаж: 9 лет 2 мес.
Сообщений: 11856
Ratio: 7572,761
Раздал: 353,7 TB
Поблагодарили: 2242837
100%
Откуда: Воронеж
russia.gif
Ровер / The Rover (2014) HDRip
Год выпуска: 2014
Производство: Австралия, США
Жанр: Драма, криминал

Режиссер: Дэвид Мишо
Продюсер: Дэвид Линд, Дэвид Мишо, Лиз Уоттс
Актеры: Гай Пирс, Роберт Паттинсон, Чан Кьень, Тек Конг Лим, Скут МакНэйри, Таванда Маниймо, Дэвид Филд, Скотт Перри, Ричард Грин, Бен Армер

Описание фильма:
Главный герой преследует по дикой австралийской природе банду, угнавшую его автомобиль, и оказывается в ловушке.

Перевод: Профессиональный многоголосый
Субтитры: Отсутствуют



Дата мировой премьеры: 18 мая 2014
Дата российской премьеры: 11 сентября 2014
Дата выхода DVD релиза: 25 ноября 2014

Продолжительность: 01:42:52
Качество видео: BDRip

Видеокодек: XviD
Битрейт видео: ~1577 Кбит/с
Размер кадра: 720x296
Аудиокодек: AC3 6 ch
Битрейт аудио: 448 Кбит/с
Общее
Полное имя : C:\NNM\Ровер\Rover 2014 HDRip.avi
Формат : AVI
Формат/Информация : Audio Video Interleave
Размер файла : 1,46 Гбайт
Продолжительность : 1 ч. 42 м.
Общий поток : 2034 Кбит/сек
Программа кодирования : VirtualDubMod 1.5.10.3

Видео
Идентификатор : 0
Формат : MPEG-4 Visual
Профиль формата : Advanced Simple@L5
Параметр BVOP формата : 3
Параметр QPel формата : Нет
Параметр GMC формата : Без точки перехода
Параметр матрицы формата : Выборочная
Идентификатор кодека : XVID
Идентификатор кодека/Подсказка : XviD
Продолжительность : 1 ч. 42 м.
Битрейт : 1577 Кбит/сек
Ширина : 720 пикселей
Высота : 296 пикселей
Соотношение сторон : 2,40:1
Частота кадров : 23,976 кадра/сек
Цветовое пространство : YUV
Субдискретизация насыщенности : 4:2:0
Битовая глубина : 8 бит
Тип развёртки : Прогрессивная
Метод сжатия : С потерями
Бит/(Пиксели*Кадры) : 0.309
Размер потока : 1,13 Гбайт (78%)
Библиотека кодирования : XviD 1.2.1 (UTC 2008-12-04)

Аудио
Идентификатор : 1
Формат : AC-3
Формат/Информация : Audio Coding 3
Расширение режима : CM (complete main)
Идентификатор кодека : 2000
Продолжительность : 1 ч. 42 м.
Вид битрейта : Постоянный
Битрейт : 448 Кбит/сек
Каналы : 6 каналов
Расположение каналов : Front: L C R, Side: L R, LFE
Частота : 48,0 КГц
Битовая глубина : 16 бит
Метод сжатия : С потерями
Размер потока : 330 Мбайт (22%)
Выравнивание : Разделение по промежуткам
Продолжительность промежутка : 42 мс. (1,00 видеокадр)
Время предзагрузки промежутка : 500 мс.
Скриншоты:
Время раздачи: Круглосуточно до 10 скачавших
[NNM-Club.me]_Rover 2014 HDRip.avi.torrent
 Торрент: Платиновая раздача  Зарегистрирован
 
Скачать


Примагнититься
 Зарегистрирован:   23 Ноя 2014 16:54:43
 Размер:   1,46 GB  (
 Рейтинг:   4,5 (Голосов: 165)
 Поблагодарили:   943
 Проверка:   Оформление проверено модератором 23 Ноя 2014 20:51:07
Как cкачать  ·  Как раздать  ·  Правильно оформить  ·  Поднять ратио!  
umarik1
 
Стаж: 9 лет 10 мес.
Сообщений: 2
Ratio: 0,922
3.63%
russia.gif
Картина не для всех. Мне понравилась.
Ultra HD Video
Uploader 100+
 
Стаж: 8 лет 5 мес.
Сообщений: 7539
Ratio: 686,032
Раздал: 209,6 TB
Поблагодарили: 1008623
100%
Не понравился, что вы в нем увидали такого интересного.
wcp
Стаж: 10 лет 1 мес.
Сообщений: 469
Ratio: 3,776
80.27%
russia.gif
блин какой он нудный!

повелся на комменты на яндекс.дзене, что фильм очень интересный... смотрел-смотрел, чуть не уснул от "динамичности" - прошла только половина фильма
Показать сообщения:   
Начать новую тему   Ответить на тему    Торрент-трекер NNM-Club -> Зарубежное кино -> Зарубежные Фильмы (HD*Rip/LQ, DVDRip, SATRip, VHSRip) Часовой пояс: GMT + 3
Страницы:   Пред.  1, 2, 3
Страница 3 из 3