Классический форум-трекер
canvas not supported
Нас вместе: 4 232 306

Счастливы вместе (2013) SATRip (сезон 6, серия 50)


 
 
RSS
Начать новую тему   Ответить на тему    Торрент-трекер NNM-Club -> Архив торрентов -> Архив Сериалов и Архив Старого многосерийного кино до 90-х
Автор Сообщение
eremin_makcim ®
Стаж: 13 лет 2 мес.
Сообщений: 152
Ratio: 830.793
Раздал: 163 TB
Поблагодарили: 13537
100%
Откуда: Котлы
pirates.png
Счастливы вместе (2013) SATRip (сезон 6, серия 50)
Год выпуска: 2013
Жанр: Комедия, Семейный

Режиссер: Александр Ануров (II), Шабан Муслимов, Георгий (Егор) Дронов, Иван Китаев, Станислав Назиров
Актеры: Виктор Логинов, Наталья Бочкарёва, Дарья Сагалова, Александр Якин, Юлия Захарова, Павел Савинков, Алексей Секирин, Илья Бутковский, Кирилл Кондратов, Максим Важов, Янина Бугрова, Анатолий Кощеев, Ольга Луговская, Дмитрий Малашенко, Сурен Вартанов, Михаил Фоменко, Екатерина Мадалинская, Поля Полякова, Катя Лель, Катерина Шпица, Сергей Пиоро, Ольга Матушкина, Александр Орав, Аркадий Укупник, Анатолий Котенёв, Вячеслав Гришечкин, Алексей Елистратов

Описание фильма:
«Счастливы вместе» — это история о средней провинциальной российской семье, живущей в Екатеринбурге. Они прожили двадцать лет вместе, знают все слабые и сильные стороны друг друга, и умело используют эти знания в семейных конфликтах. Гена и Даша Букины постоянно держат друг друга в тонусе и подкалывают, однако, им удается преодолевать все бытовые проблемы с юмором. За ссорами, руганью, обидами друг на друга скрывается настоящая теплота, привязанность и любовь.....
Сериал «Счастливы вместе» — наша версия самого успешного проекта в истории американского телевидения — «Married... with children», благодаря ему FOX Network менее чем за год превратилась из малоизвестной компании в одного из лидеров американского телевидения. Заокеанский прототип нашего ситкома не сходил с экранов в течение 11 лет, его постоянно смотрели 10% американских семей.


Дата российской премьеры: 8 марта 2006

Продолжительность: 00:23:06
Качество видео: SATRip

Видеокодек: Xvid
Битрейт видео: 1649 кбит/с
Размер кадра: 704х400, (16:9)
Аудио: 192 кбит/с, 48 kHz, MPEG Layer 3, 2 ch
Вид субтитров: вшитые
Язык субтитров: Украинский
Общее
Полное имя : D:\На новые релизы\Shastlivy.vmeste.s50.Vse dorogi vedut na kryshu .2012.SATRip.RiperAM.avi
Формат : AVI
Формат/Информация : Audio Video Interleave
Размер файла : 306 Мбайт
Продолжительность : 23 м.
Общий поток : 1850 Кбит/сек
Программа кодирования : VirtualDubMod 1.5.10.3 | www.virtualdub-fr.org || (build 2550/release)
Библиотека кодирования : VirtualDubMod build 2550/release

Видео
Идентификатор : 0
Формат : MPEG-4 Visual
Профиль формата : Advanced Simple@L5
Параметр BVOP формата : 1
Параметр QPel формата : Нет
Параметр GMC формата : Без точки перехода
Параметр матрицы формата : Default (H.263)
Идентификатор кодека : XVID
Идентификатор кодека/Подсказка : XviD
Продолжительность : 23 м.
Битрейт : 1648 Кбит/сек
Ширина : 704 пикселя
Высота : 400 пикселей
Соотношение сторон : 16:9
Частота кадров : 25,000 кадров/сек
Цветовое пространство : YUV
Субдискретизация насыщенности : 4:2:0
Битовая глубина : 8 бит
Тип развёртки : Прогрессивная
Метод сжатия : С потерями
Бит/(Пиксели*Кадры) : 0.234
Размер потока : 272 Мбайт (89%)
Библиотека кодирования : XviD 1.2.1 (UTC 2008-12-04)

Аудио
Идентификатор : 1
Формат : MPEG Audio
Версия формата : Version 1
Профиль формата : Layer 3
Режим : Joint stereo
Расширение режима : MS Stereo
Идентификатор кодека : 55
Идентификатор кодека/Подсказка : MP3
Продолжительность : 23 м.
Вид битрейта : Постоянный
Битрейт : 192 Кбит/сек
Каналы : 2 канала
Частота : 48,0 КГц
Метод сжатия : С потерями
Размер потока : 31,7 Мбайт (10%)
Выравнивание : Соединение по промежуткам
Продолжительность промежутка : 40 мс. (1,00 видеокадр)
Время предзагрузки промежутка : 504 мс.
Библиотека кодирования : LAME3.98r
Настройки программы : -m j -V 4 -q 2 -lowpass 18.6 -b 192
Скриншоты:


Все раздачи "Счастливы вместе" на NNM-Club

Время раздачи: с 2:00 до 8:00 МСК/7 дней в неделю
[NNM-Club.me]_Shastlivy.vmeste.s50.Vse dorogi vedut na kryshu .2012.SATRip.RiperAM.avi.torrent
 Торрент: Платиновая раздача  Зарегистрирован
 
Скачать


Примагнититься
 Зарегистрирован:   08 Дек 2014 15:39:15
 Размер:   306 MB  (
 Рейтинг:   4.3 (Голосов: 14)
 Поблагодарили:   50
 Проверка:   Оформление проверено модератором 09 Дек 2014 06:43:01
WedMoney кошелек для желающих помочь в покупке новых дисков для раздающего компьютера, а также для стимулирования и поощрения новых раздач
WedMoney R919724038424
Как cкачать  ·  Как раздать  ·  Правильно оформить  ·  Поднять ратио!  
Топик был перенесен из форума Отечественные сериалы в форум Счастливы вместе



Исправил релиз - напиши ЛС Alone_Kedr, дав ссылку на релиз.
Если нет ответа 24 часа - нажми на кнопку "Обратить внимание модераторов".
Топик был перенесен из форума Счастливы вместе в форум Отечественные сериалы



Исправил релиз - напиши ЛС Alone_Kedr, дав ссылку на релиз.
Если нет ответа 24 часа - нажми на кнопку "Обратить внимание модераторов".
Топик был перенесен из форума Отечественные сериалы в форум Архив Сериалов и Архив Старого многосерийного кино до 90-х

Причина переноса: Поглощено - https://nnmclub.to/forum/viewtopic.php?t=539113

Исправил релиз - напиши ЛС Kleopatra205, дав ссылку на релиз.
Если нет ответа 24 часа - нажми на кнопку "Обратить внимание модераторов".
Показать сообщения:   
Начать новую тему   Ответить на тему    Торрент-трекер NNM-Club -> Архив торрентов -> Архив Сериалов и Архив Старого многосерийного кино до 90-х Часовой пояс: GMT + 3
Страница 1 из 1