Классический форум-трекер
canvas not supported
Нас вместе: 4 235 268

Неслучайная встреча (2014) IPTVRip (сезон 1, серии 1-8 из 8)


 
 
RSS
Начать новую тему   Ответить на тему    Торрент-трекер NNM-Club -> Отечественные сериалы
Автор Сообщение
rivit76 ®
Стаж: 11 лет 6 мес.
Сообщений: 330
Ratio: 14.027
Поблагодарили: 43308
100%
Откуда: Минск, Беларусь
belarus.gif
Неслучайная встреча (2014) IPTVRip (сезон 1, серии 1-8 из 8)
Год выпуска: 2014
Жанр: Детектив, Мелодрама

Режиссер: Иван Китаев
Актеры: Владимир Яглыч, Виталий Хаев, Анна Чиповская, Кирилл Плетнёв, Светлана Устинова

Описание фильма:
Бывший легионер, Серж Лежен, он же Сергей Лежнев, работает медбратом в бригаде скорой помощи, и мечтает найти свою мать, о которой ничего не слышал вот уже тринадцать лет. Однажды, по долгу службы оказавшись на месте убийства, Серж «мимоходом» помогает полиции в раскрытии запутанного преступления. Проявив неординарные аналитические способности, герой вызывает к себе настороженный интерес не только у полиции... Кроме того, участие в этих расследованиях отвлекает его от личной жизни - его отношения с Маргаритой никак не складываются.
Он делает все для того, чтобы вновь увидеть свою мать. И вот, когда момент встречи с ней кажется, близок, что-то опять препятствует этому. Что же мешает их встрече?

Перевод: Не требуется
Субтитры: Вшитые неотключаемые (иврит)



Продолжительность: ~ 00:49:00 серия
Качество видео: IPTVRip
Сэмпл: Скачать

Видеокодек: Xvid
Битрейт видео: ~1500 Кбит/с
Размер кадра: 720x400 (16:9)
Аудиокодек: MP3
Битрейт аудио: 2 ch, 128 Кбит/с
General
Complete name : \Nesluchajnaja.vstrecha.IPTVRip\Nesluchajnaja.vstrecha.01.IPTVRip.avi
Format : AVI
Format/Info : Audio Video Interleave
File size : 573 MiB
Duration : 48mn 51s
Overall bit rate : 1 639 Kbps
Writing application : VirtualDubMod 1.5.10.3 | www.virtualdub-fr.org || (build 2550/release)
Writing library : VirtualDubMod build 2550/release

Video
ID : 0
Format : MPEG-4 Visual
Format profile : Advanced Simple@L5
Format settings, BVOP : 2
Format settings, QPel : No
Format settings, GMC : No warppoints
Format settings, Matrix : Default (H.263)
Codec ID : XVID
Codec ID/Hint : XviD
Duration : 48mn 51s
Bit rate : 1 499 Kbps
Width : 720 pixels
Height : 400 pixels
Display aspect ratio : 16:9
Frame rate : 30.000 fps
Color space : YUV
Chroma subsampling : 4:2:0
Bit depth : 8 bits
Scan type : Progressive
Compression mode : Lossy
Bits/(Pixel*Frame) : 0.174
Stream size : 524 MiB (91%)
Writing library : XviD 1.2.1 (UTC 2008-12-04)

Audio
ID : 1
Format : MPEG Audio
Format version : Version 1
Format profile : Layer 3
Mode : Joint stereo
Mode extension : MS Stereo
Codec ID : 55
Codec ID/Hint : MP3
Duration : 48mn 51s
Bit rate mode : Constant
Bit rate : 128 Kbps
Channel(s) : 2 channels
Sampling rate : 48.0 KHz
Compression mode : Lossy
Stream size : 44.7 MiB (8%)
Alignment : Aligned on interleaves
Interleave, duration : 33 ms (1.00 video frame)
Interleave, preload duration : 504 ms
Writing library : LAME3.99r
Encoding settings : -m j -V 4 -q 9 -lowpass 17 -b 128
Скриншоты:

Все релизы "Неслучайная встреча" на NNM-CLUB
Время раздачи: 24/7 до 5-ти скачавших
[NNM-Club.me]_Nesluchajnaja.vstrecha.IPTVRip.torrent
 Торрент: Платиновая раздача  Зарегистрирован
 
Скачать


Примагнититься
 Зарегистрирован:   17 Дек 2014 23:26:05
 Размер:   4.61 GB  (
 Рейтинг:   4.2 (Голосов: 158)
 Поблагодарили:   688
 Проверка:   Оформление проверено модератором 17 Дек 2014 23:38:32
Как cкачать  ·  Как раздать  ·  Правильно оформить  ·  Поднять ратио!  
reamma
Стаж: 14 лет 2 мес.
Сообщений: 121
Ratio: 4.116
100%
russia.gif
Спасибо. Мне сериал понравился
Rain_82
Стаж: 13 лет 7 мес.
Сообщений: 533
Ratio: 24.298
Раздал: 15.16 TB
88.5%
Откуда: Екатеринбург
russia.gif
когда финальная серия уже?
rivit76 ®
Стаж: 11 лет 6 мес.
Сообщений: 330
Ratio: 14.027
Поблагодарили: 43308
100%
Откуда: Минск, Беларусь
belarus.gif
Торрент обновлен, добавлена 8-я серия
Samat III
Стаж: 14 лет 3 мес.
Сообщений: 8
Ratio: 92.052
100%
russia.gif
Спасибо, очень понравилось! Концовка позволяет надеяться на продолжение?
MaxZus
 
Стаж: 11 лет 2 мес.
Сообщений: 1372
Ratio: 22.852
Поблагодарили: 100
100%
ussr.gif
Буду считать что: сценарист учится писать, режисёр - учится снимать, а актёры учатся играть.
ушук
Стаж: 11 лет 8 мес.
Сообщений: 440
Ratio: 100.813
100%
russia.gif
Уважаемый rivit76 сериал супер но только не в IPTVRip .
Он уже раздается в формате (MKV) .
Аудио: AC3, 2 ch, 192 Кбит/с 48.0 KHz . Я скачал с другого сайта .
Я не умею выкладывать но много сидироваю .
Помогите другим в NNM-Club поишите и если можно раздайте .
Ссылки не могу выкладывать - меня ругают модераторы .
С УВАЖЕНИЕМ ко ВСЕМ NNM-Club .
Показать сообщения:   
Начать новую тему   Ответить на тему    Торрент-трекер NNM-Club -> Отечественные сериалы Часовой пояс: GMT + 3
Страница 1 из 1