Классический форум-трекер
canvas not supported
Нас вместе: 4 210 635

Тайны следствия (2014) HDTV [H.264/1080i-LQ] (сезон 14, серия 1-16 из 16)


 
 
RSS
Начать новую тему   Ответить на тему    Торрент-трекер NNM-Club -> Отечественные сериалы
Автор Сообщение
aleksan66 ®
Uploader 100+
Стаж: 11 лет 5 мес.
Сообщений: 3503
Ratio: 1997.167
Поблагодарили: 235893
100%
russia.gif
Тайны следствия (2014) HDTV [H.264/1080i-LQ] [сезон 14, серия 1-16 из 16]
Год выпуска: 2014
Жанр: детектив, криминал

Режиссер: Ольга Кандидатова
Актеры: Анна Ковальчук, Вячеслав Захаров, Игорь Николаев (II), Александр Новиков (III), Ольга Павловец, Мирослав Малич, Злата Ильченко, Юлия Яковлева, Олег Алмазов, Дмитрий Поднозов, Яна Кушаковская, Гульназ Насырова, Дмитрий Максимов (II), Гавриил Федотов, Варвара Шалагина, Кирилл Фролов, Сергей Мардарь, Василина Стрельникова, Роман Павлушев, Сергей Малюгов, Андрей Шарков, Мария Павлова, Ксения Асмоловская, Ирина Коваленко (II), Юрий Архангельский

Описание фильма:
Как всегда блестяще справляясь со своими профессиональными обязанностями, Мария Швецова должна постоянно помнить и о другой важной части своей жизни. Семья тоже требует её терпения и заботы. Любимая мама и обожаемая супруга, как всегда проводит дома слишком мало времени, чтобы уделять хозяйству достаточно внимания. Поэтому Луганский предлагает Маше взять помощницу по дому, но Швецова не спешит соглашаться на это предложение, тем более, что Злата принимает эту идею в штыки: теперь она сама будет вести дом в отсутствие мамы! Отрадная поддержка со стороны дочери приходится очень кстати, ведь новые очень серьёзные дела не заставляют себя ждать. Швецовой приходится заниматься не только банальными на первый взгляд убийствами, но и расследованиями, в которых замешаны политические мотивы. И самые на первый взгляд просто складывающиеся расследования часто помогают вскрывать удивительные и страшные тайны прошлого.


Дата российской премьеры: 15 декабря 2014 года Россия1

Продолжительность: ~00:42:00 серия
Качество видео: HDTV
Сэмпл: Скачать

Видеокодек: MPEG-4 AVC/H.264
Формат: TS
Битрейт видео: ~7410 Kbps
Размер кадра: 1920x1080 (16:9)
Аудиокодек: MP2
Битрейт аудио: 192 kb/s, 2 ch
Общее
Идентификатор : 1 (0x1)
Полное имя : H:\Тайны следствия-14\01 серия.ts
Формат : MPEG-TS
Размер файла : 2,37 Гбайт
Продолжительность : 42 м.
Режим общего битрейта : Переменный
Общий поток : 7999 Кбит/сек

Видео
Идентификатор : 224 (0xE0)
Идентификатор меню : 1 (0x1)
Формат : AVC
Формат/Информация : Advanced Video Codec
Профиль формата : High@L4.0
Параметр CABAC формата : Да
Параметр ReFrames формата : 4 кадра
Параметр GOP формата : M=4, N=32
Идентификатор кодека : 27
Продолжительность : 42 м.
Битрейт : 7410 Кбит/сек
Ширина : 1920 пикселей
Высота : 1080 пикселей
Соотношение сторон : 16:9
Частота кадров : 25,000 кадров/сек
Цветовое пространство : YUV
Субдискретизация насыщенности : 4:2:0
Битовая глубина : 8 бит
Тип развёртки : MBAFF
Бит/(Пиксели*Кадры) : 0.143
Размер потока : 2,19 Гбайт (93%)

Аудио
Идентификатор : 192 (0xC0)
Идентификатор меню : 1 (0x1)
Формат : MPEG Audio
Версия формата : Version 1
Профиль формата : Layer 2
Режим : Joint stereo
Расширение режима : Intensity Stereo + MS Stereo
Идентификатор кодека : 3
Продолжительность : 42 м.
Вид битрейта : Постоянный
Битрейт : 192 Кбит/сек
Каналы : 2 канала
Частота : 48,0 КГц
Метод сжатия : С потерями
Размер потока : 58,2 Мбайт (2%)
Язык : English
Скриншоты:

Все раздачи «Тайны следствия» на трекере
Время раздачи: По возможности
 Торрент: Платиновая раздача  Зарегистрирован
 
Скачать


Примагнититься
 Зарегистрирован:   19 Дек 2014 00:40:44
 Размер:   38.5 GB  (
 Рейтинг:   3.9 (Голосов: 58)
 Поблагодарили:   208
 Проверка:   Оформление проверено модератором 19 Дек 2014 06:58:22
Как cкачать  ·  Как раздать  ·  Правильно оформить  ·  Поднять ратио!  
voicenemo
Стаж: 10 лет
Сообщений: 988
Ratio: 1.995
Раздал: 615 GB
16.03%
ussr.gif
Сколько всего серий будет: 12 или 16 ?
aleksan66 ®
Uploader 100+
Стаж: 11 лет 5 мес.
Сообщений: 3503
Ratio: 1997.167
Поблагодарили: 235893
100%
russia.gif
voicenemo писал(а): Перейти к сообщению
Сколько всего серий будет: 12 или 16 ?


В заголовке сколько написано.16
aleksan66 ®
Uploader 100+
Стаж: 11 лет 5 мес.
Сообщений: 3503
Ratio: 1997.167
Поблагодарили: 235893
100%
russia.gif
Добавлены 13-16 серия.
Показать сообщения:   
Начать новую тему   Ответить на тему    Торрент-трекер NNM-Club -> Отечественные сериалы Часовой пояс: GMT + 3
Страница 1 из 1