Классический форум-трекер
canvas not supported
Нас вместе: 4 166 486

Zero Hour - The Towers Of Avarice (2001) [APE|Lossless]<Progressive Metal>


 
 
RSS
Начать новую тему   Ответить на тему    Торрент-трекер NNM-Club -> Архив торрентов -> Архив Музыки
Автор Сообщение
gatherone ®
RG Music
Стаж: 9 лет 3 мес.
Сообщений: 2657
Ratio: 185.659
Поблагодарили: 72498
9.19%
Zero Hour - The Towers Of Avarice (2001)
Год: 2001
Жанр: Progressive Metal
Label & Catalog#: Sensory - SR3011
Продолжительность: 00:45:25

Кодек: APE [image+cue]
Битрейт: Lossless

Треклист:
01. The Towers Of Avarice [07:52]
02. The Subterranean [04:11]
03. Stratagem [08:06]
04. Reflections [03:56]
05. Demise And Vestige [15:47]
06. The Ghosts Of Dawn [05:30]
Код:
REM GENRE Progressive Metal
REM DATE 2001
REM DISCID 4B0AA506
REM COMMENT ExactAudioCopy v0.95b1
PERFORMER "Zero Hour"
TITLE "The Towers Of Avarice"
FILE "Zero Hour [2001] The Towers Of Avarice.ape" WAVE
  TRACK 01 AUDIO
    TITLE "The Towers Of Avarice"
    PERFORMER "Zero Hour"
    INDEX 01 00:00:00
  TRACK 02 AUDIO
    TITLE "The Subterranean"
    PERFORMER "Zero Hour"
    INDEX 00 07:51:08
    INDEX 01 07:52:28
  TRACK 03 AUDIO
    TITLE "Stratagem"
    PERFORMER "Zero Hour"
    INDEX 00 12:01:59
    INDEX 01 12:04:03
  TRACK 04 AUDIO
    TITLE "Reflections"
    PERFORMER "Zero Hour"
    INDEX 00 20:08:63
    INDEX 01 20:10:18
  TRACK 05 AUDIO
    TITLE "Demise And Vestige"
    PERFORMER "Zero Hour"
    INDEX 00 24:05:43
    INDEX 01 24:06:50
  TRACK 06 AUDIO
    TITLE "The Ghosts Of Dawn"
    PERFORMER "Zero Hour"
    INDEX 00 39:52:09
    INDEX 01 39:54:40
Код:

EAC extraction logfile from 5. December 2005, 19:51 for CD
Zero Hour / The Towers Of Avarice

Used drive  : _NEC    DVD_RW ND-2510A   Adapter: 1  ID: 0
Read mode   : Secure with NO C2, accurate stream, disable cache
Read offset correction : 48
Overread into Lead-In and Lead-Out : No

Used output format : C:\Programme\EAC (Exact Audio Copy)\MAC.EXE   (Monkey's Audio Lossless Encoder)
                     High Lossless Compression

Other options      :
    Fill up missing offset samples with silence : Yes
    Delete leading and trailing silent blocks : No
    Installed external ASPI interface

Range status and errors
Selected range
     Filename H:\MMT\Zero Hour-[2991] The Towers Of Avarice\CDImage.wav

     Peak level 98.8 %
     Range quality 99.7 %
     CRC 31AEDF2C
     Copy OK

No errors occured

End of status report
Код:

-----------------------

DON'T MODIFY THIS FILE

-----------------------

PERFORMER: auCDtect Task Manager, ver. 1.6.0 RC1 build 1.6.0.1
Copyright (c) 2008-2010 y-soft. All rights reserved
http://y-soft.org

ANALYZER: auCDtect: CD records authenticity detector, version 0.8.2
Copyright (c) 2004 Oleg Berngardt. All rights reserved.
Copyright (c) 2004 Alexander Djourik. All rights reserved.

FILE: Zero Hour [2001] The Towers Of Avarice.ape
  Size: 315512720 Hash: D954FE493D86863F8FFBCBFF48F990E1 Accuracy: -m0
  Conclusion: CDDA 99%
  Signature: 3A49C97B9323477A2D376092FB0A0034FE1AD864
Время раздачи: 19.00 - 23.00


Поглощение/вытеснение
Только с согласия релизера

Pashketan
[NNM-Club.me]_Zero Hour [2001] The Towers Of Avarice.torrent
 Торрент: Платиновая раздача  Зарегистрирован
 
Скачать


Примагнититься
 Зарегистрирован:   21 Дек 2014 16:55:02
 Размер:   316 MB  (
 Рейтинг:   4.7 (Голосов: 10)
 Поблагодарили:   29
 Проверка:   Оформление проверено модератором 21 Дек 2014 17:58:17
Как cкачать  ·  Как раздать  ·  Правильно оформить  ·  Поднять ратио!  
Топик был перенесен из форума Metal (Lossless) в форум Архив Музыки

Причина переноса: Длительное отсутствие сида на протяжении более 6 месяцев.

Исправил релиз - напиши ЛС chaosman1986, дав ссылку на релиз.
Если нет ответа 24 часа - нажми на кнопку "Обратить внимание модераторов".
Показать сообщения:   
Начать новую тему   Ответить на тему    Торрент-трекер NNM-Club -> Архив торрентов -> Архив Музыки Часовой пояс: GMT + 3
Страница 1 из 1