Классический форум-трекер
canvas not supported
Нас вместе: 4 231 963

Нераскрытые тайны. Почему вода бывает некачественной (2014) SATRip


 
 
RSS
Начать новую тему   Ответить на тему    Торрент-трекер NNM-Club -> Документалистика и Телепередачи -> Отечественная история
Автор Сообщение
kruglii ®
Стаж: 14 лет 2 мес.
Сообщений: 3194
Ratio: 5654.31
Раздал: 48.73 TB
Поблагодарили: 117499
100%
Откуда: Одесса-МАМА
ussr.gif
Нераскрытые тайны. Почему вода бывает некачественной (2014) SATRip
Режиссер / Телекомпания: Москва Медиа
Жанр: Документальный

Описание:
По данным Всемирной организации здравоохранения, около 90% болезней человека вызывается употреблением для питьевых нужд некачественной воды, а также использование неподготовленной воды в бытовых целях. Какую воду пьют люди, и как определить, что вода непригодна для использования? Что входит в состав питьевой воды и какие элементы в ней недопустимы? Смотрите в программе "Нераскрытые тайны".

Продолжительность: 00:44:01
Качество видео: SATRip

Видео: MPEG4, 718x400 (16:9), 25.000 fps, 1 517 Kbps (0.211 bit/pixel)
Аудио: MP3, 48.0 KHz, 2 ch, 128 Kbps, CBR
Общее
Полное имя : E:\Doc.filmi\Нераскрытые тайны\Почему вода бывает некачественной.[nnmclub.to].avi
Формат : AVI
Формат/Информация : Audio Video Interleave
Размер файла : 522 Мбайт
Продолжительность : 44 м.
Общий поток : 1657 Кбит/сек
Библиотека кодирования : Lavf53.24.2

Видео
Идентификатор : 0
Формат : MPEG-4 Visual
Профиль формата : Simple@L1
Параметр BVOP формата : Нет
Параметр QPel формата : Нет
Параметр GMC формата : Без точки перехода
Параметр матрицы формата : Default (H.263)
Идентификатор кодека : FMP4
Продолжительность : 44 м.
Битрейт : 1517 Кбит/сек
Ширина : 718 пикселей
Высота : 400 пикселей
Соотношение сторон : 16:9
Частота кадров : 25,000 кадров/сек
Цветовое пространство : YUV
Субдискретизация насыщенности : 4:2:0
Битовая глубина : 8 бит
Тип развёртки : Прогрессивная
Метод сжатия : С потерями
Бит/(Пиксели*Кадры) : 0.211
Размер потока : 478 Мбайт (91%)
Библиотека кодирования : Lavc53.42.4

Аудио
Идентификатор : 1
Формат : MPEG Audio
Версия формата : Version 1
Профиль формата : Layer 3
Режим : Joint stereo
Расширение режима : MS Stereo
Идентификатор кодека : 55
Идентификатор кодека/Подсказка : MP3
Продолжительность : 44 м.
Вид битрейта : Постоянный
Битрейт : 128 Кбит/сек
Каналы : 2 канала
Частота : 48,0 КГц
Метод сжатия : С потерями
Размер потока : 40,3 Мбайт (8%)
Выравнивание : Соединение по промежуткам
Продолжительность промежутка : 24 мс. (0,60 видеокадр)
Библиотека кодирования : LAME3.98.4
Скриншоты:


Время раздачи: с 08:00 до 22:30

Нераскрытые тайны. на nnmclub.to
Pochemu voda byivaet nekachestvennoy.[nnm-club.me].avi.torrent
 Торрент: Платиновая раздача  Зарегистрирован
 
Скачать


Примагнититься
 Зарегистрирован:   16 Янв 2015 08:39:08
 Размер:   522 MB  (
 Рейтинг:   4.5 (Голосов: 31)
 Поблагодарили:   122
 Проверка:   Оформление проверено модератором 16 Янв 2015 20:51:08
Как cкачать  ·  Как раздать  ·  Правильно оформить  ·  Поднять ратио!  
Показать сообщения:   
Начать новую тему   Ответить на тему    Торрент-трекер NNM-Club -> Документалистика и Телепередачи -> Отечественная история Часовой пояс: GMT + 3
Страница 1 из 1