Классический форум-трекер
canvas not supported
Нас вместе: 4 231 956

Нераскрытые тайны. Как работал черный рынок товаров в СССР (2014) SATRip


 
 
RSS
Начать новую тему   Ответить на тему    Торрент-трекер NNM-Club -> Документалистика и Телепередачи -> Отечественная история
Автор Сообщение
kruglii ®
Стаж: 14 лет 2 мес.
Сообщений: 3194
Ratio: 5654.31
Раздал: 48.73 TB
Поблагодарили: 117499
100%
Откуда: Одесса-МАМА
ussr.gif
Нераскрытые тайны. Как работал черный рынок товаров в СССР (2014) SATRip
Режиссер / Телекомпания: Москва Медиа
Жанр: Документальный

Описание:
Чем в СССР торговали "из-под полы"? Как советские граждане узнавали, где и почем добыть дефицит? Почему власти зачастую закрывали глаза на черный рынок, и что грозило тем, кто все-таки попадался? Смотрите в программе "Нераскрытые тайны".

Качество видео: SATRip
Продолжительность: 00:44:10

Видео: MPEG4, 640x480 (4:3), 25.000 fps, 1 415 Kbps (0.184 bit/pixel)
Аудио: MP3, 48.0 KHz, 2 ch, 128 Kbps, CBR
Общее
Полное имя : E:\Doc.filmi\Нераскрытые тайны\Как работал черный рынок товаров в СССР.[nnmclub.to].avi
Формат : AVI
Формат/Информация : Audio Video Interleave
Размер файла : 492 Мбайт
Продолжительность : 44 м.
Общий поток : 1556 Кбит/сек
Программа кодирования : Lavf52.84.0

Видео
Идентификатор : 0
Формат : MPEG-4 Visual
Профиль формата : Simple@L1
Параметр BVOP формата : Нет
Параметр QPel формата : Нет
Параметр GMC формата : Без точки перехода
Параметр матрицы формата : Default (H.263)
Идентификатор кодека : FMP4
Продолжительность : 44 м.
Битрейт : 1415 Кбит/сек
Ширина : 640 пикселей
Высота : 480 пикселей
Соотношение сторон : 4:3
Частота кадров : 25,000 кадров/сек
Цветовое пространство : YUV
Субдискретизация насыщенности : 4:2:0
Битовая глубина : 8 бит
Тип развёртки : Прогрессивная
Метод сжатия : С потерями
Бит/(Пиксели*Кадры) : 0.184
Размер потока : 447 Мбайт (91%)
Библиотека кодирования : Lavc52.97.0

Аудио
Идентификатор : 1
Формат : MPEG Audio
Версия формата : Version 1
Профиль формата : Layer 3
Режим : Joint stereo
Расширение режима : MS Stereo
Идентификатор кодека : 55
Идентификатор кодека/Подсказка : MP3
Продолжительность : 44 м.
Вид битрейта : Постоянный
Битрейт : 128 Кбит/сек
Каналы : 2 канала
Частота : 48,0 КГц
Метод сжатия : С потерями
Размер потока : 40,4 Мбайт (8%)
Выравнивание : Соединение по промежуткам
Продолжительность промежутка : 24 мс. (0,60 видеокадр)
Библиотека кодирования : LAME3.98.4
Скриншоты:


Время раздачи: с 08:00 до 22:30

Нераскрытые тайны. на nnmclub.to
Kak rabotal chernyiy ryinok tovarov v SSSR.[nnm-club.me].avi.torrent
 Торрент:   Зарегистрирован
 
Зарегистрируйтесь и скачайте торрент!
19.8 KB

Примагнититься
 Зарегистрирован:   24 Янв 2015 18:55:35
 Размер:   492 MB  (
 Рейтинг:   4.2 (Голосов: 26)
 Поблагодарили:   91
 Проверка:   Оформление проверено модератором 24 Янв 2015 19:52:01
Как cкачать  ·  Как раздать  ·  Правильно оформить  ·  Поднять ратио!  
autenkin
Стаж: 11 лет 9 мес.
Сообщений: 511
Ratio: 6.025
100%
Враньё всё и поклёп - подавляющее большинство и не знали что такое чёрный рынок и неплохо жили. Расчитано явно на выпускников ЕГЭ.
Показать сообщения:   
Начать новую тему   Ответить на тему    Торрент-трекер NNM-Club -> Документалистика и Телепередачи -> Отечественная история Часовой пояс: GMT + 3
Страница 1 из 1