Классический форум-трекер
canvas not supported
Нас вместе: 4 232 509

Звезда (2014) WEB-DL [H.264/1080p]


 
 
RSS
Начать новую тему   Ответить на тему    Торрент-трекер NNM-Club -> Отечественное кино -> Отечественные Фильмы (HD, FHD, UHD)
Автор Сообщение
Shuran80 ®
Свободный релизер
 
Стаж: 15 лет
Сообщений: 3351
Ratio: 1102.143
Раздал: 87.06 TB
Поблагодарили: 195393
100%
Откуда: Ленинград
ussr.gif
Звезда (2014) WEB-DL [H.264/1080p]
Производство: Россия
Жанр: драма, мелодрама, Комедия

Режиссер: Анна Меликян
Актеры: Тинатин Далакишвили, Северия Янушаускайте, Павел Табаков, Андрей Смоляков, Юозас Будрайтис, Александр Шейн, Арунас Сторпирстис, Сергей Каплунов, Гоша Куценко, Филипп Янковский, Денис Шведов

Описание фильма:
Юная актриса — очаровательная и неуклюжая непосредственность, мечтающая стать настоящей звездой. Роскошная светская львица, жизнь которой в одно мгновение повисла на волоске. Её пятнадцатилетний приёмный сын, уставший от денег и притворства. Такие разные люди, такие тесно переплетенные судьбы… Изысканный юмор, нежная романтическая линия и драматичные повороты сюжета приведут нас к трогательной развязке, где каждый герой осознает, что для него значит истинное счастье.

Перевод: Не требуется (Русский)
Субтитры: Отсутствуют


Дата мировой премьеры: 13 октября 2014
Дата российской премьеры: 4 декабря 2014, «WDSSPR»

Продолжительность: 02:13:38
Качество видео: WEB-DL [1080p]

Видеокодек: MPEG-4 AVC/H.264
Видео: 1920x1080, ~4911 kbps
Аудио: AC3, 6 ch, 384 kbps (Русский)
Код: выделить все

Общее
Уникальный идентификатор                 : 205186912602012782340585318030994881001 (0x9A5D8FD9D5ED7CA6B33C32A35FA4B9E9)
Полное имя                               : Zvezda.2014.WEB-DL.1080p.mkv
Формат                                   : Matroska
Версия формата                           : Version 4 / Version 2
Размер файла                             : 5,04 Гбайт
Продолжительность                        : 2 ч. 13 м.
Общий поток                              : 5402 Кбит/сек
Дата кодирования                         : UTC 2015-01-22 09:55:36
Программа кодирования                    : mkvmerge v6.9.1 ('Blue Panther') 64bit built on Apr 18 2014 18:23:38
Библиотека кодирования                   : libebml v1.3.0 + libmatroska v1.4.1

Видео
Идентификатор                            : 1
Формат                                   : AVC
Формат/Информация                        : Advanced Video Codec
Профиль формата                          : High@L4.0
Параметр CABAC формата                   : Да
Параметр ReFrames формата                : 4 кадра
Идентификатор кодека                     : V_MPEG4/ISO/AVC
Продолжительность                        : 2 ч. 13 м.
Битрейт                                  : 4911 Кбит/сек
Ширина                                   : 1920 пикселей
Высота                                   : 1080 пикселей
Соотношение сторон                       : 16:9
Режим частоты кадров                     : Постоянный
Частота кадров                           : 24,000 кадра/сек
Цветовое пространство                    : YUV
Субдискретизация насыщенности            : 4:2:0
Битовая глубина                          : 8 бит
Тип развёртки                            : Прогрессивная
Бит/(Пиксели*Кадры)                      : 0.099
Размер потока                            : 4,58 Гбайт (91%)
Язык                                     : English
Default                                  : Да
Forced                                   : Нет
Основные цвета                           : BT.709
Характеристики трансфера                 : BT.709
Коэффициенты матрицы                     : BT.709

Аудио
Идентификатор                            : 2
Формат                                   : AC-3
Формат/Информация                        : Audio Coding 3
Расширение режима                        : CM (complete main)
Параметр Endianness формата              : Big
Идентификатор кодека                     : A_AC3
Продолжительность                        : 2 ч. 13 м.
Вид битрейта                             : Постоянный
Битрейт                                  : 384 Кбит/сек
Каналы                                   : 6 каналов
Расположение каналов                     : Front: L C R, Side: L R, LFE
Частота                                  : 48,0 КГц
Битовая глубина                          : 16 бит
Метод сжатия                             : С потерями
Размер потока                            : 367 Мбайт (7%)
Язык                                     : Russian
Default                                  : Да
Forced                                   : Нет

Меню
00:00:00.000                             : en:Глава 1
00:05:23.000                             : en:Глава 2
00:10:31.000                             : en:Глава 3
00:15:54.000                             : en:Глава 4
00:21:21.000                             : en:Глава 5
00:26:43.000                             : en:Глава 6
00:34:03.000                             : en:Глава 7
00:41:27.000                             : en:Глава 8
00:49:15.000                             : en:Глава 9
00:57:26.000                             : en:Глава 10
01:05:42.000                             : en:Глава 11
01:12:52.000                             : en:Глава 12
01:19:26.000                             : en:Глава 13
01:26:35.000                             : en:Глава 14
01:34:19.000                             : en:Глава 15
01:41:14.000                             : en:Глава 16
01:47:56.000                             : en:Глава 17
01:55:08.000                             : en:Глава 18
02:02:21.000                             : en:Глава 19
02:07:25.000                             : en:Глава 20
Скриншоты:

Время раздачи: Обычно с 19:00 до 00:00
[NNM-Club.me]_Zvezda.2014.WEB-DL.1080p.mkv.torrent
 Торрент: Платиновая раздача  Зарегистрирован
 
Скачать


Примагнититься
 Зарегистрирован:   25 Янв 2015 19:05:46
 Размер:   5.04 GB  (
 Рейтинг:   4.2 (Голосов: 146)
 Поблагодарили:   667
 Проверка:   Оформление проверено модератором 02 Апр 2024 23:14:36
Как cкачать  ·  Как раздать  ·  Правильно оформить  ·  Поднять ратио!  
kado812
Стаж: 10 лет 2 мес.
Сообщений: 97
Ratio: 4.086
0.3%
Мне фильм понравился-Тинатин Далакишвили не профессиональная актриса сыграла очень хорошо,как будто прожила эту роль,есть моменты ,когда посмеялся от души,интрига сохраняется до конца фильма и конец немножко грустный ,но поучительный для нытиков-жить и радоваться жизни добиваясь своих маленьких целей под ударом судьбы,да еще умудряется вытащить из душевного болота светскую сволочь.Прекрасная юная главная героиня,непосредственная и жизнелюбивая .Вообщем респект режиссеру Анне Меликян.Фильму 5 из 5.
jg71
Стаж: 11 лет 7 мес.
Сообщений: 1697
Ratio: 3.796
100%
Откуда: Из счастливого прошлого
pirates.png
Мне тоже фильм понравился , несмотря на то что сюжет надёрган из многих западных фильмов , но собранная вместе мозаика из этих сюжетов получилась довольно неплохой.
Один минус в том , что весь фильм ловишь себя на мысли о том , что ты это уже видел и не один раз.

_________________
Если у меня другое мнение, это не значит, что я ваш враг или идиот. Это просто значит, что у меня другое мнение.
iname
Стаж: 14 лет 3 мес.
Сообщений: 14
Ratio: 1.793
100%
Отличный фильм!
GIIIaX
Стаж: 11 лет 9 мес.
Сообщений: 38
Ratio: 0.858
100%
качаю только из-за второго скрина надеюсь тема с*сек раскрыта
jamsik
Стаж: 12 лет 11 мес.
Сообщений: 2
Ratio: 2.957
54.35%
russia.gif
хороший фильм!
Komso
Стаж: 9 лет 6 мес.
Сообщений: 33
Ratio: 0.222
0.98%
germany.gif
Сначала смотрел с трудом, но - неплохой фильм!

_________________
Чем больше выпьет комсомолец - тем меньше выпьет хулиган!
Petacheg
Стаж: 12 лет 8 мес.
Сообщений: 27
Ratio: 9.666
Поблагодарили: 8
2.15%
belarus.gif
норм, понравился
Показать сообщения:   
Начать новую тему   Ответить на тему    Торрент-трекер NNM-Club -> Отечественное кино -> Отечественные Фильмы (HD, FHD, UHD) Часовой пояс: GMT + 3
Страница 1 из 1