Классический форум-трекер
canvas not supported
Нас вместе: 4 231 956

Нераскрытые тайны. Как древние приматы эволюционировали в людей (2014) SATRip


 
 
RSS
Начать новую тему   Ответить на тему    Торрент-трекер NNM-Club -> Документалистика и Телепередачи -> Отечественная история
Автор Сообщение
kruglii ®
Стаж: 14 лет 2 мес.
Сообщений: 3194
Ratio: 5654.31
Раздал: 48.73 TB
Поблагодарили: 117499
100%
Откуда: Одесса-МАМА
ussr.gif
Нераскрытые тайны. Как древние приматы эволюционировали в людей (2014) SATRip
Режиссер / Телекомпания: Москва Медиа
Жанр: Документальный

Описание:
Антропогенез – раздел антропологии, изучающий происхождение человека. Но как древние приматы трансформировались? Какие особенности дали возможность именно им вырастить разумную ветвь эволюции? Какие изменения происходили с древними обезьянами? Что или кто позволило им стать человеком? Насколько богатая эволюционная «родня» у человека? Смотрите подробности в фильме из цикла "Нераскрытые тайны".

Качество видео: SATRip
Продолжительность: 00:44:10

Видео: MPEG4, 640x480 (4:3), 25.000 fps, 1 153 Kbps (0.150 bit/pixel)
Аудио: MP3, 48.0 KHz, 2 ch, 128 Kbps, CBR
Общее
Полное имя : E:\Doc.filmi\Нераскрытые тайны\Как древние приматы эволюционировали в людей.[nnmclub.to].avi
Формат : AVI
Формат/Информация : Audio Video Interleave
Размер файла : 409 Мбайт
Продолжительность : 44 м.
Общий поток : 1294 Кбит/сек
Программа кодирования : Lavf52.84.0

Видео
Идентификатор : 0
Формат : MPEG-4 Visual
Профиль формата : Simple@L1
Параметр BVOP формата : Нет
Параметр QPel формата : Нет
Параметр GMC формата : Без точки перехода
Параметр матрицы формата : Default (H.263)
Идентификатор кодека : FMP4
Продолжительность : 44 м.
Битрейт : 1153 Кбит/сек
Ширина : 640 пикселей
Высота : 480 пикселей
Соотношение сторон : 4:3
Частота кадров : 25,000 кадров/сек
Цветовое пространство : YUV
Субдискретизация насыщенности : 4:2:0
Битовая глубина : 8 бит
Тип развёртки : Прогрессивная
Метод сжатия : С потерями
Бит/(Пиксели*Кадры) : 0.150
Размер потока : 364 Мбайт (89%)
Библиотека кодирования : Lavc52.97.0

Аудио
Идентификатор : 1
Формат : MPEG Audio
Версия формата : Version 1
Профиль формата : Layer 3
Режим : Joint stereo
Расширение режима : MS Stereo
Идентификатор кодека : 55
Идентификатор кодека/Подсказка : MP3
Продолжительность : 44 м.
Вид битрейта : Постоянный
Битрейт : 128 Кбит/сек
Каналы : 2 канала
Частота : 48,0 КГц
Метод сжатия : С потерями
Размер потока : 40,4 Мбайт (10%)
Выравнивание : Соединение по промежуткам
Продолжительность промежутка : 24 мс. (0,60 видеокадр)
Библиотека кодирования : LAME3.98.4
Скриншоты:


Время раздачи: с 08:00 до 22:30

Нераскрытые тайны. на nnmclub.to
Kak drevnie primatyi yevolyutsionirovali v lyudey.[nnm-club.me].avi.torrent
 Торрент:   Зарегистрирован
 
Зарегистрируйтесь и скачайте торрент!
16.5 KB

Примагнититься
 Зарегистрирован:   28 Янв 2015 14:41:08
 Размер:   409 MB  (
 Рейтинг:   4.5 (Голосов: 26)
 Поблагодарили:   85
 Проверка:   Оформление проверено модератором 28 Янв 2015 19:44:37
Как cкачать  ·  Как раздать  ·  Правильно оформить  ·  Поднять ратио!  
PlayStation
Стаж: 16 лет 11 мес.
Сообщений: 957
Ratio: 43.742
Поблагодарили: 948
100%
confederate.gif
простите, а эволюция приматов в людей происходила исключительно в нашем отечестве?

_________________
PlayStation.
Real game is coming !!!
kruglii ®
Стаж: 14 лет 2 мес.
Сообщений: 3194
Ratio: 5654.31
Раздал: 48.73 TB
Поблагодарили: 117499
100%
Откуда: Одесса-МАМА
ussr.gif
PlayStation писал(а): Перейти к сообщению
простите, а эволюция приматов в людей происходила исключительно в нашем отечестве?
я понял вопрос :) Это лишь из-за того чтоб не разбрасывать релизы по разделам
andxr
Стаж: 13 лет 8 мес.
Сообщений: 225
Ratio: 210.714
100%
PlayStation писал(а): Перейти к сообщению
простите, а эволюция приматов в людей происходила исключительно в нашем отечестве?

Более того, похоже, по большому счету она еще в самом разгаре... :подмигивание:
Ermite
Стаж: 13 лет 8 мес.
Сообщений: 755
Ratio: 46.341
Поблагодарили: 526
100%
russia.gif
andxr писал(а): Перейти к сообщению
PlayStation писал(а): Перейти к сообщению
простите, а эволюция приматов в людей происходила исключительно в нашем отечестве?
Более того, похоже, по большому счету она еще в самом разгаре... :подмигивание:
В то время, как в отдельных более развитых странах, похоже, начался обратный процесс... :подмигивание:
andxr
Стаж: 13 лет 8 мес.
Сообщений: 225
Ratio: 210.714
100%
Ermite писал(а): Перейти к сообщению
andxr писал(а): Перейти к сообщению
PlayStation писал(а): Перейти к сообщению
простите, а эволюция приматов в людей происходила исключительно в нашем отечестве?
Более того, похоже, по большому счету она еще в самом разгаре... :подмигивание:
В то время, как в отдельных более развитых странах, похоже, начался обратный процесс... :подмигивание:

Что еще интересно, похоже, периодичность этих процессов неизбежна для всех участников эволюции, кроме, наверное, самих приматов - они как были приматами, так ими и остаются... :подмигивание:
serge-z
Стаж: 13 лет 8 мес.
Сообщений: 664
Ratio: 18.4
Раздал: 21.09 TB
Поблагодарили: 10132
100%
Откуда: Владимир
russia.gif
После этого фильма Всем смотреть "Люси" и картина станет ясней :D
giotto75
Стаж: 11 лет 4 мес.
Сообщений: 108
Ratio: 0.041
1.18%
Ermite писал(а): Перейти к сообщению
andxr писал(а): Перейти к сообщению
PlayStation писал(а): Перейти к сообщению
простите, а эволюция приматов в людей происходила исключительно в нашем отечестве?
Более того, похоже, по большому счету она еще в самом разгаре... :подмигивание:
В то время, как в отдельных более развитых странах, похоже, начался обратный процесс... :подмигивание:


В России были, есть и будут только приматы. Место, видимо, заколдованное - одни алкаши и неудачники. Все люди давно уехали в отдельные более развитые страны.
Ermite
Стаж: 13 лет 8 мес.
Сообщений: 755
Ratio: 46.341
Поблагодарили: 526
100%
russia.gif
giotto75 писал(а): Перейти к сообщению
В России были, есть и будут только приматы. Место, видимо, заколдованное - одни алкаши и неудачники. Все люди давно уехали в отдельные более развитые страны.
Ну я живу в России. С огромным любопытством послушаю, с чего вы сделали вывод, что я - алкаш или неудачник. :D
Или вы только троллить умеете?
Показать сообщения:   
Начать новую тему   Ответить на тему    Торрент-трекер NNM-Club -> Документалистика и Телепередачи -> Отечественная история Часовой пояс: GMT + 3
Страница 1 из 1