Классический форум-трекер
canvas not supported
Нас вместе: 4 233 339

Победитель (2009) DVDRip


 
 
RSS
Начать новую тему   Ответить на тему    Торрент-трекер NNM-Club -> Отечественное кино -> Отечественные Фильмы (SD)
Автор Сообщение
smpeal ®
Стаж: 11 лет 9 мес.
Сообщений: 62
Ratio: 99.87
Поблагодарили: 7340
100%
ussr.gif
Победитель (2009) DVDRip
Производство: Star Media (Россия, Украина)
Жанр: Мелодрама

Режиссер: Альгис Арлаускас
Актеры: Эдуард Трухменёв, Марина Шиманская, Екатерина Вуличенко, Александр Робак, Юлия Куварзина, Владимир Гусев, Александр Андриенко, Василий Фролов, Егор Вадов, Михаил Мартьянов

Описание фильма:
Успешный предприниматель, сорокалетний владелец холдинга, директор Бета-Банка,
Игорь Семёнов, последние лет десять работавший заграницей, прилетает в Москву.
После встречи с подчинёнными, вместо того, чтобы поехать на запланированную
корпоративную встречу, он вдруг принимает решение отправиться на загородную виллу.
Там он застаёт свою жену Вику с любовником.

Это событие выбивает его из привычной колеи. Поручив бракоразводный процесс своему заместителю, он напивается и, сам не зная зачем, едет в маленький подмосковный Пригорск. Когда-то он вырос здесь, без отца, в полнейшей нищете. Он постарался забыть своё прошлое….
Но неожиданно происходит ряд встреч и событий, которые полностью изменят его жизнь.



Продолжительность: 01:33:59
Качество видео: DVDRip

Видеокодек: Xvid
Битрейт видео: ~1633 Kbps
Размер кадра: 704х384
Аудиокодек: AC3
Битрейт аудио: 192 Kbps, 2 канала
Код:

Общее
Полное имя                               : Y:\Фильмы\Отечественные\Победитель (2009) DVDRip\Победитель (2009) DVDRip.avi
Формат                                   : AVI
Формат/Информация                        : Audio Video Interleave
Размер файла                             : 1,20 Гбайт
Продолжительность                        : 1 ч. 33 м.
Общий поток                              : 1834 Кбит/сек
Программа кодирования                    : VirtualDubModRus 1.5.10.2 (build 2542/release)
Библиотека кодирования                   : VirtualDubMod build 2542/release

Видео
Идентификатор                            : 0
Формат                                   : MPEG-4 Visual
Профиль формата                          : Advanced Simple@L5
Параметр BVOP формата                    : 2
Параметр QPel формата                    : Нет
Параметр GMC формата                     : Без точки перехода
Параметр матрицы формата                 : Default (H.263)
Режим смешивания                         : Сжатый битовый поток
Идентификатор кодека                     : XVID
Идентификатор кодека/Подсказка           : XviD
Продолжительность                        : 1 ч. 33 м.
Битрейт                                  : 1633 Кбит/сек
Ширина                                   : 704 пикселя
Высота                                   : 384 пикселя
Соотношение сторон                       : 1,85:1
Частота кадров                           : 25,000 кадров/сек
Цветовое пространство                    : YUV
Субдискретизация насыщенности            : 4:2:0
Битовая глубина                          : 8 бит
Тип развёртки                            : Прогрессивная
Метод сжатия                             : С потерями
Бит/(Пиксели*Кадры)                      : 0.242
Размер потока                            : 1,07 Гбайт (89%)
Библиотека кодирования                   : XviD 64

Аудио
Идентификатор                            : 1
Формат                                   : AC-3
Формат/Информация                        : Audio Coding 3
Расширение режима                        : CM (complete main)
Параметр Endianness формата              : Big
Идентификатор кодека                     : 2000
Продолжительность                        : 1 ч. 33 м.
Вид битрейта                             : Постоянный
Битрейт                                  : 192 Кбит/сек
Каналы                                   : 2 канала
Расположение каналов                     : Front: L R
Частота                                  : 48,0 КГц
Битовая глубина                          : 16 бит
Метод сжатия                             : С потерями
Задержка видео                           : 600 мс.
Размер потока                            : 129 Мбайт (10%)
Выравнивание                             : Разделение по промежуткам
Продолжительность промежутка             : 40  мс. (1,00 видеокадр)
Время предзагрузки промежутка            : 500  мс.
Скриншоты:
Время раздачи: По выходным с 12-24, иногда вечером в будни
[NNM-Club]_Pobeditel'_2009__DVDRip_avi.torrent
 Торрент: Платиновая раздача  Зарегистрирован
 
Скачать


Примагнититься
 Зарегистрирован:   01 Фев 2015 19:22:10
 Размер:   1.2 GB  (
 Рейтинг:   4.5 (Голосов: 44)
 Поблагодарили:   154
 Проверка:   Оформление проверено модератором 01 Фев 2015 22:39:54
Как cкачать  ·  Как раздать  ·  Правильно оформить  ·  Поднять ратио!  
Показать сообщения:   
Начать новую тему   Ответить на тему    Торрент-трекер NNM-Club -> Отечественное кино -> Отечественные Фильмы (SD) Часовой пояс: GMT + 3
Страница 1 из 1