Классический форум-трекер
canvas not supported
Нас вместе: 4 206 140

Путешественник / Вперёд в прошлое / Journeyman (2007) HDTVRip (сезон 1, серии 1-13 из 13) LostFilm


 
 
RSS
Начать новую тему   Ответить на тему    Торрент-трекер NNM-Club -> Архив торрентов -> Архив Сериалов и Архив Старого многосерийного кино до 90-х
Автор Сообщение
Valerik!! ®
Стаж: 14 лет 9 мес.
Сообщений: 24
Ratio: 1.583
Поблагодарили: 183
56.63%
Откуда: Пермь
russia.gif
Путешественник / Вперёд в прошлое / Journeyman (2007) HDTVRip (сезон 1, серии 1-13 из 13) LostFilm
Год выпуска: 2007
Жанр: Фантастика, мелодрама

Перевод: Профессиональный, многоголосый закадровый



Режиссер: Алекс Грэйвс
Актеры: Кевин МакКидд, Брайан Хоу, Грэтчен Иголф, Рид Даймонд, Чарльз Генри Вайсон, Джессика Андерсон

Описание фильма:
У Дэна Вассера было все: любящая жена, ребенок и отличная работа. Но внезапно его жизнь резко изменилась. Теперь он путешествует в прошлое и пытается изменить судьбы людей к лучшему. Дэн встречает свою бывшую невесту, погибшую в авиакатострофе при загадочных обстоятельствах. Вооруженный знаниями о прошлом сможет ли он ее спасти? Как изменится его собственное будущее? И кем станет он сам? Тем более, что он не один такой путешественник...

Все релизы сериала

Продолжительность: 13 серии по ~00:42:00
Качество видео: HDTVRip
Сэмпл: Скачать

Видеокодек: Xvid
Битрейт видео: ~962kbps
Размер кадра: 640x352
Аудиокодек: MP3
Битрейт аудио: 128kbps 2ch

Релиз группа: Lost Film
Перевод: AgCooper, Triada, DeadMan.
Редактор: Relicit
Озвучка: Студия «Kravec»

Пожалуйста оставайтесь на раздаче!
Video
ID : 0
Format : MPEG-4 Visual
Format profile : Advanced Simple@L5
Format settings, BVOP : 2
Format settings, QPel : No
Format settings, GMC : No warppoints
Format settings, Matrix : Default (H.263)
Muxing mode : Packed bitstream
Codec ID : XVID
Codec ID/Hint : XviD
Duration : 42mn 3s
Bit rate : 962 Kbps
Width : 640 pixels
Height : 352 pixels
Display aspect ratio : 16:9
Frame rate : 23.976 fps
Color space : YUV
Chroma subsampling : 4:2:0
Bit depth : 8 bits
Scan type : Progressive
Compression mode : Lossy
Bits/(Pixel*Frame) : 0.178
Stream size : 289 MiB (87%)
Writing library : XviD 1.2.0.dev47 (UTC 2006-11-01)

Audio
ID : 1
Format : MPEG Audio
Format version : Version 1
Format profile : Layer 3
Mode : Joint stereo
Mode extension : MS Stereo
Codec ID : 55
Codec ID/Hint : MP3
Duration : 42mn 3s
Bit rate mode : Constant
Bit rate : 128 Kbps
Channel(s) : 2 channels
Sampling rate : 48.0 KHz
Compression mode : Lossy
Stream size : 38.5 MiB (12%)
Alignment : Aligned on interleaves
Interleave, duration : 24 ms (0.58 video frame)
Interleave, preload duration : 480 ms
Скриншоты:

Время раздачи: 24/7
Реставрация от: Ahmad_Kasseer
[NNM-Club.info] JourneymanE01-13.torrent
 Торрент: Платиновая раздача  Зарегистрирован
 
Скачать


Примагнититься
 Зарегистрирован:   02 Дек 2020 07:50:29
 Размер:   4.41 GB  (
 Рейтинг:   4.8 (Голосов: 48)
 Поблагодарили:   132
 Проверка:   Оформление проверено модератором 02 Дек 2020 07:51:11
Как cкачать  ·  Как раздать  ·  Правильно оформить  ·  Поднять ратио!  
mr_noob
Стаж: 11 лет 5 мес.
Сообщений: 1158
Ratio: 61.782
100%
russia.gif
оч интересно узнать почему сериал закрыли
качаю)

_________________
Like no other...
Топик был перенесен из форума Зарубежные сериалы в форум Архив Сериалов

Причина переноса: раздающего не было 3 месяца.

Исправил релиз - напиши ЛС DriverV, дав ссылку на релиз.
Если нет ответа 24 часа - нажми на кнопку "Обратить внимание модераторов".
Alone_Kedr
Куратор Сериалов
Зам. Куратора Видео, Модератор Талантов, Uploader 100+,
DJ Настроения
Стаж: 8 лет 3 мес.
Сообщений: 13553
Ratio: 7728.697
Поблагодарили: 410493
100%
Откуда: CCCP
ussr.gif
Торрент перерегистрирован в рамках акции: "Включаем DHT в древних раздачах".
Теперь, Вам необходимо скачать в топике обновленный *.torrent-файл по новой, "скормить" его своему клиенту и присоединиться к раздаче.
Показать сообщения:   
Начать новую тему   Ответить на тему    Торрент-трекер NNM-Club -> Архив торрентов -> Архив Сериалов и Архив Старого многосерийного кино до 90-х Часовой пояс: GMT + 3
Страница 1 из 1