Классический форум-трекер
canvas not supported
Нас вместе: 4 154 208

Jethro Tull - NightCap (1993) [FLAC|lossless]<Prog-Rock/Art-Rock>


 
 
RSS
Начать новую тему   Ответить на тему    Торрент-трекер NNM-Club -> Rock, Alternative, Punk, Metal -> Rock (Lossless)
Автор Сообщение
tegoffs ®
Виниловод. Сталкер
Стаж: 13 лет 5 мес.
Сообщений: 2953
Ratio: 17.781
Поблагодарили: 10724
100%
Откуда: мне знать?
honduras.gif
Jethro Tull - NightCap (1993)
Год: 1993
Жанр: Prog-Rock/Art-Rock
Продолжительность: 02:00:53

Кодек: FLAC
Битрейт: lossless

Треклист:

Disc 1: Chateau D'Isaster Tapes:
1. First Post (1:54)
2. Animelee (1:40)
3. Tiger Toon (1:35)
4. Look at the Animals (5:09)
5. Law of the Bungle (2:31)
6. Law of the Bungle, Pt. 2 (5:25)
7. Left Right (5:02)
8. Solitaire (1:25)
9. Critique Oblique (9:02)
10. Post Last (5:35)
11. Scenario (3:25)
12. Audition (2:33)
13. No Rehearsal (5:12)
Продолжительнoсть: 00:50:37
1. Paradise Steakhouse (4:01)
2. Sealion II (3:20)
3. Piece of Cake (3:40)
4. Quartet (2:44)
5. Silver River Turning (4:51)
6. Crew Nights (4:33)
7. The Curse (3:38)
8. Rosa on the Factory Floor (4:38)
9. A Small Cigar (3:39)
10. Man of Principle (3:57)
11. Commons Brawl (3:23)
12. No Step (3:38)
13. Drive on the Young Side of Life (4:12)
14. I Don't Want to Be Me (3:29)
15. Broadford Bazaar (3:38)
16. Lights Out (5:16)
17. Truck Stop Runner (3:47)
18. Hard Liner (3:47)
Продолжительнoсть: 01:10:18

Сразу хочу сказать - альбом для фанов. Здесь два диска: первый - историческое свидетельство неудачной (с точки зрения Яна Андерсона) звукозаписывающей сессии во Франции в Chateau D'Herouville, в котором до этого писался Элтон Джон (альбомы Honkey Chateau и Don't Shoot Me I'm Only The Piano Player). Сессия была забракована напрочь, материал был полностью переписан и вошел в A Passion Play, а отдельные осколки долетели до WarChild. Соответственно, Шато был переименован Яном для себя в Замок Беда, точнее Б'еда - на французкий манер (диск носит название Ленты Замка Б'еда). Но запись, если честно, хороша - группа была в самом рассвете сил в своем золотом составе, играли с душой, ярко. Если бы не огрехи французкой студии, A Passion Play выглядел бы примерно так. Или даже лучше. Но сроки поджимали, и на тщательную, как это было задумано, проработку альбома времени уже не оставалось. А с учетом того, что почти весь материал был не просто переписан, но и переработан, A Passion Play получился сыроватым, и злобные критики оторвались во всю.
Второй же диск - всевозможные ауттейки, не вошедшие в разные альбомы за весь период до 1993 года. Среди них есть совершенно замечательные вещи, просто они не согласовывались с концепцией текущих альбомов. А как синглы почему-то не пошли. В целом альбом практически повторил судьбу Living in the Past: с одной стороны номерным альбомом он не является, но всеми фанами он воспринимается именно как самостоятельный номерной альбом.
Код:
Exact Audio Copy V0.99 prebeta 3 from 28. July 2007

Отчёт EAC об извлечении, выполненном 4. сентября 2008, 8:52

Jethro Tull / Nightcap - The Chateau D'Isaster Tapes (Disc 1)

Дисковод: _NEC    DVD_RW ND-4570A   Adapter: 0  ID: 1

Режим чтения                 : Достоверность
Использование точного потока : Да
Отключение кэша аудио        : Да
Использование указателей C2  : Да

Коррекция смещения при чтении                     : 48
Способность читать области Lead-in и Lead-out     : Нет
Заполнение пропущенных сэмплов тишиной            : Да
Удаление блоков с тишиной в начале и конце        : Нет
При вычислениях CRC использовались нулевые сэмплы : Да
Интерфейс                                         : Встроенный Win32-интерфейс для Win NT/2000

Выходной формат          : Пользовательский кодировщик
Выбранный битрейт        : 768 kBit/s
Качество                 : Высокий
Добавление ID3-тэга      : Нет
Утилита сжатия           : C:\Program Files\Exact Audio Copy\FLAC\FLAC.EXE
Дополнительные параметры : -6 -V -T "ARTIST=%a" -T "TITLE=%t" -T "ALBUM=%g" -T "DATE=%y" -T "TRACKNUMBER=%n" -T "GENRE=%m" -T "COMMENT=%e" %s -o %d

TOC извлечённого CD

     Трек |   Старт  | Длительность | Начальный сектор | Конечный сектор
    ---------------------------------------------------------------------
       1  |  0:00.00 |    1:54.70   |           0      |       8619
       2  |  1:54.70 |    1:40.60   |        8620      |      16179
       3  |  3:35.55 |    1:35.25   |       16180      |      23329
       4  |  5:11.05 |    5:09.57   |       23330      |      46561
       5  | 10:20.62 |    2:31.73   |       46562      |      57959
       6  | 12:52.60 |    5:25.67   |       57960      |      82401
       7  | 18:18.52 |    5:02.45   |       82402      |     105096
       8  | 23:21.22 |    1:25.13   |      105097      |     111484
       9  | 24:46.35 |    9:02.60   |      111485      |     152194
      10  | 33:49.20 |    5:35.52   |      152195      |     177371
      11  | 39:24.72 |    3:25.33   |      177372      |     192779
      12  | 42:50.30 |    2:33.55   |      192780      |     204309
      13  | 45:24.10 |    5:12.60   |      204310      |     227769

Характеристики диапазона извлечения и сообщения об ошибках

Выбранный диапазон

     Имя файла C:\torrents\music\lossless\Jethro Tull\Jethro Tull 1993-NightCap\Jethro Tull - Nightcap - The Chateau D'Isaster Tapes (Disc 1).wav

     Пиковый уровень 100.0 %
     Качество диапазона 100.0 %
     CRC копии 925195ED
     Копирование... OK

Ошибок не произошло

AccurateRip: сводка

Трек  1  точное извлечение (доверие 5)  [94174B23]
Трек  2  точное извлечение (доверие 5)  [F4D5E678]
Трек  3  точное извлечение (доверие 5)  [3662DC13]
Трек  4  точное извлечение (доверие 5)  [B45F9847]
Трек  5  точное извлечение (доверие 5)  [DB656B47]
Трек  6  точное извлечение (доверие 5)  [5395D41F]
Трек  7  точное извлечение (доверие 5)  [16ED96A4]
Трек  8  точное извлечение (доверие 5)  [6A551501]
Трек  9  точное извлечение (доверие 4)  [EF07A215]
Трек 10  точное извлечение (доверие 5)  [A9B4019E]
Трек 11  точное извлечение (доверие 5)  [038D634A]
Трек 12  точное извлечение (доверие 5)  [CCA1A9C5]
Трек 13  точное извлечение (доверие 5)  [538843EA]

Все треки извлечены точно

Конец отчёта
Код:
Exact Audio Copy V0.99 prebeta 3 from 28. July 2007

Отчёт EAC об извлечении, выполненном 4. сентября 2008, 8:40

Jethro Tull / Nightcap - Unreleased & Rare Tracks (Disc 2)

Дисковод: _NEC    DVD_RW ND-4570A   Adapter: 0  ID: 1

Режим чтения                 : Достоверность
Использование точного потока : Да
Отключение кэша аудио        : Да
Использование указателей C2  : Да

Коррекция смещения при чтении                     : 48
Способность читать области Lead-in и Lead-out     : Нет
Заполнение пропущенных сэмплов тишиной            : Да
Удаление блоков с тишиной в начале и конце        : Нет
При вычислениях CRC использовались нулевые сэмплы : Да
Интерфейс                                         : Встроенный Win32-интерфейс для Win NT/2000

Выходной формат          : Пользовательский кодировщик
Выбранный битрейт        : 768 kBit/s
Качество                 : Высокий
Добавление ID3-тэга      : Нет
Утилита сжатия           : C:\Program Files\Exact Audio Copy\FLAC\FLAC.EXE
Дополнительные параметры : -6 -V -T "ARTIST=%a" -T "TITLE=%t" -T "ALBUM=%g" -T "DATE=%y" -T "TRACKNUMBER=%n" -T "GENRE=%m" -T "COMMENT=%e" %s -o %d

TOC извлечённого CD

     Трек |   Старт  | Длительность | Начальный сектор | Конечный сектор
    ---------------------------------------------------------------------
       1  |  0:00.22 |    4:01.40   |          22      |      18136
       2  |  4:01.62 |    3:20.20   |       18137      |      33156
       3  |  7:22.07 |    3:40.43   |       33157      |      49699
       4  | 11:02.50 |    2:44.55   |       49700      |      62054
       5  | 13:47.30 |    4:51.67   |       62055      |      83946
       6  | 18:39.22 |    4:33.03   |       83947      |     104424
       7  | 23:12.25 |    3:38.50   |      104425      |     120824
       8  | 26:51.00 |    4:38.30   |      120825      |     141704
       9  | 31:29.30 |    3:39.12   |      141705      |     158141
      10  | 35:08.42 |    3:57.20   |      158142      |     175936
      11  | 39:05.62 |    3:23.38   |      175937      |     191199
      12  | 42:29.25 |    3:38.42   |      191200      |     207591
      13  | 46:07.67 |    4:12.15   |      207592      |     226506
      14  | 50:20.07 |    3:29.15   |      226507      |     242196
      15  | 53:49.22 |    3:38.15   |      242197      |     258561
      16  | 57:27.37 |    5:16.08   |      258562      |     282269
      17  | 62:43.45 |    3:47.17   |      282270      |     299311
      18  | 66:30.62 |    3:47.08   |      299312      |     316344

Характеристики диапазона извлечения и сообщения об ошибках

Выбранный диапазон

     Имя файла C:\torrents\music\lossless\Jethro Tull\Jethro Tull 1993-NightCap\Jethro Tull - Nightcap - Unreleased & Rare Tracks (Disc 2).wav

     Пиковый уровень 96.6 %
     Качество диапазона 100.0 %
     CRC копии EEB0C437
     Копирование... OK

Ошибок не произошло

AccurateRip: сводка

Трек  1  точное извлечение (доверие 4)  [AA903674]
Трек  2  точное извлечение (доверие 5)  [CA94929E]
Трек  3  точное извлечение (доверие 5)  [F6438C29]
Трек  4  точное извлечение (доверие 5)  [AB1F93A7]
Трек  5  точное извлечение (доверие 5)  [99C70034]
Трек  6  точное извлечение (доверие 5)  [C75D6E07]
Трек  7  точное извлечение (доверие 5)  [4FC00610]
Трек  8  точное извлечение (доверие 5)  [3AD8BCE7]
Трек  9  точное извлечение (доверие 5)  [70BD7E37]
Трек 10  точное извлечение (доверие 5)  [6FEB791E]
Трек 11  точное извлечение (доверие 5)  [39E620D3]
Трек 12  точное извлечение (доверие 5)  [11C7E3D5]
Трек 13  точное извлечение (доверие 5)  [8A91CBDE]
Трек 14  точное извлечение (доверие 5)  [B265A96D]
Трек 15  точное извлечение (доверие 5)  [C6F372DA]
Трек 16  точное извлечение (доверие 5)  [45EABD28]
Трек 17  точное извлечение (доверие 5)  [C753426B]
Трек 18  точное извлечение (доверие 5)  [4AE9D023]

Все треки извлечены точно

Конец отчёта
Почитать про Jethro Tull:
на английском можно здесь
а на русском можно здесь
Реставрация от: Dimitrows
[NNM-Club.info] Jethro Tull 1993 NightCap.torrent
 Торрент: Платиновая раздача  Зарегистрирован
 
Скачать


 Зарегистрирован:   19 Сен 2008 18:05:17
 Размер:   816 MB  (
 Рейтинг:   4.8 (Голосов: 14)
 Поблагодарили:   40
 Проверка:   Оформление проверено модератором 19 Сен 2008 18:25:11
Как cкачать  ·  Как раздать  ·  Правильно оформить  ·  Поднять ратио!  

_________________
It's only rock 'n' roll but I like it! (c) Jagger and Richards
Показать сообщения:   
Начать новую тему   Ответить на тему    Торрент-трекер NNM-Club -> Rock, Alternative, Punk, Metal -> Rock (Lossless) Часовой пояс: GMT + 3
Страница 1 из 1