Классический форум-трекер
canvas not supported
Нас вместе: 4 081 692

Интерны (2014) WEB DLRip [H.264] (Сезон 11, серии 1-20 из 20)


Страницы:   Пред.  1, 2 
 
RSS
Начать новую тему   Ответить на тему    Торрент-трекер NNM-Club -> Отечественные сериалы -> Интерны
Автор Сообщение
vova-salt ®
Модератор Книг
RG Книги
 
Стаж: 8 лет 7 мес.
Сообщений: 2915
Ratio: 12,039
Раздал: 1,278 TB
Поблагодарили: 609398
100%
Откуда: 43 регион
russia.gif
Интерны (2014) WEB-DLRip
Русское название: Интерны
Год выпуска: 2014
Производство: Россия, "Комеди Клаб Продакшн"
Жанр: Комедия

Режиссер: Максим Пежемский, Дина Штурманова
Актеры: Иван Охлобыстин, Илья Глинников, Александр Ильин мл., Вадим Демчог, Светлана Камынина, Юлия Назаренко-Благая, Один Ланд Байрон, Светлана Пермякова, Илья Шидловский, Александр Ляпин, Аглая Тарасова

Описание фильма:
Жизнь обычной многопрофильной больницы - сплошная рутина. Ненормированный рабочий день, тяжелая, неблагодарная работа, а также инопланетяне, электрики, спивающийся венеролог, озабоченная медсестра, больной-эксгибиционист, ручная крыса, четыре интерна, которые все время расстраивают своего руководителя... Как Иван Охлобыстин в лице доктора Быкова справится со всей этой суетой?



Продолжительность: ~00:23:00 серия
Качество видео: WEB-DLRip

Видеокодек: MPEG-4 AVC/H.264
Битрейт видео: ~2000 Кбит/сек
Размер кадра: 1024 x 576
Аудиокодек: AC3
Битрейт аудио: 192 Кбит/сек, 2 канала, 44,1 КГц
1 СЕРИЯ
Быков решает применить к своим интернам новую педагогическую методу. Его старые интерны будут обучать новых. Романенко, Лобанов и Фил должны стать такими же жестокими и циничными, как сам Быков. Но разве может кто-то сравниться с Андреем Евгеньевичем?

2 СЕРИЯ
Софья влюблена в Романенко, но Купитман не разрешает ему и близко подходить к племяннице. Романенко отвергает Софью, и она, как любая уважающая себя девушка, впадает в депрессию. А Максим с Алёшей в это время практикуют методы нетрадиционной медицины.

3 СЕРИЯ
У Купитмана и Романенко новый план, как отвадить Софью от Романенко. Глеб должен показать ей все свои самые худшие качества. Алёша лечит своего земляка из Торжка, а у пациента Максима совсем другая проблема, ведь он моряк-подводник, а на подлодках совсем нет женщин.

4 СЕРИЯ
У Фила неизлечимая болезнь - он совершенно не умеет врать. А вот Максим врёт просто виртуозно - впрочем, Алёша так же виртуозно разрушает его планы. Кисегач просит Быкова присмотреть за Илюшей, Быков просит присмотреть за Илюшей Софью..

5 СЕРИЯ
Быков запрещает Софье и Романенко любые отношения на работе, но препятствия только раззадоривают Софью. А Купитман, Кисегач и Лобанов чуть не устраивают в больнице пожар, а все для того, чтобы Фил стал ответственным за технику безопасности.
Общее
Уникальный идентификатор : 205751153045018904858667788061480157566 (0x9ACA3B0D76367BA8B772051DB1ED817E)
Полное имя : D:\сереалы\Интерны 11 сезон\Interny.s11.e01.mkv
Формат : Matroska
Версия формата : Version 2
Размер файла : 406 Мбайт
Продолжительность : 24 м.
Общий поток : 2295 Кбит/сек
Дата кодирования : UTC 2014-10-06 15:53:33
Программа кодирования : mkvmerge v6.1.0 ('Old Devil') built on Mar 4 2013 09:10:42
Библиотека кодирования : libebml v1.3.0 + libmatroska v1.4.0

Видео
Идентификатор : 1
Формат : AVC
Формат/Информация : Advanced Video Codec
Профиль формата : High@L4.1
Параметр CABAC формата : Да
Параметр ReFrames формата : 8 кадров
Идентификатор кодека : V_MPEG4/ISO/AVC
Продолжительность : 24 м.
Битрейт : 2100 Кбит/сек
Ширина : 1024 пикселя
Высота : 576 пикселей
Соотношение сторон : 16:9
Режим частоты кадров : Постоянный
Частота кадров : 25,000 кадров/сек
Цветовое пространство : YUV
Субдискретизация насыщенности : 4:2:0
Битовая глубина : 8 бит
Тип развёртки : Прогрессивная
Бит/(Пиксели*Кадры) : 0.142
Размер потока : 364 Мбайт (90%)
Библиотека кодирования : x264 core 130 r2273 b3065e6
Настройки программы : cabac=1 / ref=8 / deblock=1:-1:-2 / analyse=0x3:0x133 / me=umh / subme=7 / psy=1 / psy_rd=1.00:0.10 / mixed_ref=1 / me_range=32 / chroma_me=1 / trellis=2 / 8x8dct=1 / cqm=0 / deadzone=21,11 / fast_pskip=0 / chroma_qp_offset=-3 / threads=6 / lookahead_threads=1 / sliced_threads=0 / nr=0 / decimate=1 / interlaced=0 / bluray_compat=0 / constrained_intra=0 / bframes=3 / b_pyramid=2 / b_adapt=2 / b_bias=0 / direct=3 / weightb=1 / open_gop=0 / weightp=2 / keyint=250 / keyint_min=25 / scenecut=40 / intra_refresh=0 / rc_lookahead=50 / rc=2pass / mbtree=1 / bitrate=2100 / ratetol=1.0 / qcomp=0.60 / qpmin=0 / qpmax=69 / qpstep=4 / cplxblur=20.0 / qblur=0.5 / ip_ratio=1.40 / aq=1:1.00
Default : Да
Forced : Нет

Аудио
Идентификатор : 2
Формат : AC-3
Формат/Информация : Audio Coding 3
Расширение режима : CM (complete main)
Параметр Endianness формата : Big
Идентификатор кодека : A_AC3
Продолжительность : 24 м.
Вид битрейта : Постоянный
Битрейт : 192 Кбит/сек
Каналы : 2 канала
Расположение каналов : Front: L R
Частота : 44,1 КГц
Битовая глубина : 16 бит
Метод сжатия : С потерями
Размер потока : 34,0 Мбайт (8%)
Default : Да
Forced : Нет
Скриншоты:

Все раздачи сериала «Интерны» на NNM-Club
Время раздачи: По возможности. До первых 5 сидов.
 Торрент: Платиновая раздача  Зарегистрирован
 
Скачать


Примагнититься
 Зарегистрирован:   07 Ноя 2014 00:41:30
 Размер:   7,47 GB  (
 Рейтинг:   4,3 (Голосов: 398)
 Поблагодарили:   1382
 Проверка:   Оформление проверено модератором 07 Ноя 2014 01:04:12
Как cкачать  ·  Как раздать  ·  Правильно оформить  ·  Поднять ратио!  
vova-salt ®
Модератор Книг
RG Книги
 
Стаж: 8 лет 7 мес.
Сообщений: 2915
Ratio: 12,039
Раздал: 1,278 TB
Поблагодарили: 609398
100%
Откуда: 43 регион
russia.gif
Добавлена 19-20 серия.
Warchoon
Стаж: 10 лет 2 мес.
Сообщений: 93
Ratio: 5,313
4.96%
Опять облом с сидами. Топипикстартера в игнор нафиг.
dexgun
Стаж: 9 лет 3 мес.
Сообщений: 79
Ratio: 0,469
Поблагодарили: 2
2.38%
Нравятся же мне ихние вдумчивые лица, как-будто жопу бегемота пред собой впервые увидели, сам анус.
rila
Стаж: 8 лет 11 мес.
Сообщений: 6
Ratio: 32,087
0%
lithuania.gif
спасибо
Показать сообщения:   
Начать новую тему   Ответить на тему    Торрент-трекер NNM-Club -> Отечественные сериалы -> Интерны Часовой пояс: GMT + 3
Страницы:   Пред.  1, 2
Страница 2 из 2