Интеллигентный торрент-трекер
canvas not supported
Нас вместе: 4 329 543

Топ-модель / The Model (2016) BDRip [H.264/1080p-LQ]


Страницы:  1, 2  След. 
 
RSS
Начать новую тему   Ответить на тему    Торрент-трекер NNM-Club -> Зарубежное кино -> Зарубежные Фильмы (HD*Rip/LQ, DVDRip, SATRip, VHSRip)
Автор Сообщение
lexandros ®
RG NNM Club Video
Куратор Видео
 

Online
Стаж: 4 года 1 мес.
Сообщений: 2745
Ratio: 515,252
Поблагодарили: 38628
100%
russia.gif
Топ-модель / The Model (2016) BDRip [H.264/1080p-LQ]

Производство: Дания, Film Vаst, Zentropa Entertainments
Жанр: мелодрама

Режиссер: Мадс Маттисен
Актеры: Эд Скрейн, Клер Трэн, Мария Палм, Ивонник Мюллер, Кристиан Абарт, Доминик Оллберн, Верджил Брэмли, Тьерри Анкиссе, Марко Ильсе, ..

Описание:
Когда начинающая модель из глубинки Эмма получает приглашение в одно из ведущих модных агентств, она, ни секунды не сомневаясь, отправляется навстречу своей мечте в Париж. На одной из фотосессий она встречает успешного и привлекательного фотографа Шейна Уайта, в которого влюбляется. Однако мир моды диктует свои условия, и то, что поначалу складывалось для нее как сказка, начинает постепенно перерастать в опасную одержимость и настоящий ночной кошмар.


Возраст: 16+ (зрителям, достигшим 16 лет)
Дата мировой премьеры: 4 февраля 2016
Дата российской премьеры: 5 мая 2016

Релиз от: lexandros для NNM CLUB
Продолжительность: 01:48:02
Качество видео: BDRip-LQ
Перевод: Многоголосый закадровый, профессиональный

Видео: H.264/AVC, 1920x1032, ~5151 kbps
Аудио: AC3, 6 ch, 640 kbps, CBR, Русский (MVO)
Код: выделить все
General
Format                                   : Matroska
Format version                           : Version 4 / Version 2
File size                                : 4.37 GiB
Duration                                 : 1 h 48 min
Overall bit rate                         : 5 785 kb/s
Movie name                               : The.Model.2016.BDRip.1080p-LQ.NNMCLUB
Encoded date                             : UTC 2016-08-18 06:43:51
Writing application                      : mkvmerge v9.3.1 ('Mask Machine') 64bit
Writing library                          : libebml v1.3.4 + libmatroska v1.4.5

Video
ID                                       : 1
Format                                   : AVC
Format/Info                              : Advanced Video Codec
Format profile                           : High@L4.1
Format settings, CABAC                   : Yes
Format settings, ReFrames                : 4 frames
Codec ID                                 : V_MPEG4/ISO/AVC
Duration                                 : 1 h 48 min
Bit rate                                 : 5 151 kb/s
Width                                    : 1 920 pixels
Height                                   : 1 032 pixels
Display aspect ratio                     : 1.85:1
Frame rate mode                          : Constant
Frame rate                               : 24.000 FPS
Color space                              : YUV
Chroma subsampling                       : 4:2:0
Bit depth                                : 8 bits
Scan type                                : Progressive
Bits/(Pixel*Frame)                       : 0.108
Stream size                              : 3.88 GiB (89%)
Writing library                          : x264 core 148 r2638 7599210
Encoding settings                        : cabac=1 / ref=4 / deblock=1:-1:-1 / analyse=0x3:0x133 / me=umh / subme=11 / psy=1 / psy_rd=1.05:0.00 / mixed_ref=1 / me_range=32 / chroma_me=1 / trellis=2 / 8x8dct=1 / cqm=0 / deadzone=21,11 / fast_pskip=0 / chroma_qp_offset=-2 / threads=6 / lookahead_threads=1 / sliced_threads=0 / nr=0 / decimate=0 / interlaced=0 / bluray_compat=0 / constrained_intra=0 / bframes=6 / b_pyramid=2 / b_adapt=2 / b_bias=0 / direct=3 / weightb=1 / open_gop=0 / weightp=2 / keyint=240 / keyint_min=23 / scenecut=40 / intra_refresh=0 / rc_lookahead=60 / rc=2pass / mbtree=0 / bitrate=5151 / ratetol=1.0 / qcomp=0.70 / qpmin=10 / qpmax=51 / qpstep=4 / cplxblur=20.0 / qblur=0.5 / vbv_maxrate=62500 / vbv_bufsize=50000 / nal_hrd=none / filler=0 / ip_ratio=1.40 / pb_ratio=1.20 / aq=3:0.85
Language                                 : English
Default                                  : Yes
Forced                                   : No

Audio
ID                                       : 2
Format                                   : AC-3
Format/Info                              : Audio Coding 3
Mode extension                           : CM (complete main)
Format settings, Endianness              : Big
Codec ID                                 : A_AC3
Duration                                 : 1 h 48 min
Bit rate mode                            : Constant
Bit rate                                 : 640 kb/s
Channel(s)                               : 6 channels
Channel positions                        : Front: L C R, Side: L R, LFE
Sampling rate                            : 48.0 kHz
Frame rate                               : 31.250 FPS (1536 spf)
Compression mode                         : Lossy
Stream size                              : 495 MiB (11%)
Language                                 : Russian
Default                                  : Yes
Forced                                   : No

Menu
00:00:00.000                             : en:00:00:00.000
00:14:13.625                             : en:00:14:13.625
00:28:03.792                             : en:00:28:03.792
00:39:34.833                             : en:00:39:34.833
00:54:22.250                             : en:00:54:22.250
01:07:10.875                             : en:01:07:10.875
01:21:59.750                             : en:01:21:59.750
01:32:51.542                             : en:01:32:51.542

 
Русская дорожка получена путем наложения выделенных чистых голосов переводчиков на центральный канал декодированной оригинальной аудиодорожки
Скриншоты:


Все одноименные релизы в Клубе
Время раздачи: 24/7 (до появления первых 3-5 скачавших)
[NNMClub.to]_The.Model.2016.BDRip.1080p-LQ.torrent
 Торрент: Платиновая раздача  Зарегистрирован
 
Примагнититься

Скачать
 Зарегистрирован:   18 Авг 2016 10:00:08
 Размер:   4,37 GB  (
 Рейтинг:   3,8 (Голосов: 18)
 Поблагодарили:   143
 Проверка:   Оформление проверено модератором 18 Авг 2016 18:51:04
Как cкачать  ·  Как раздать  ·  Правильно оформить  ·  Поднять ратио!  
sergei2327
Стаж: 1 год 2 мес.
Сообщений: 190
Ratio: 2,126
3.08%
НЕ впечатлило.
kRONiCXXII
Стаж: 5 лет 1 мес.
Сообщений: 793
Ratio: 9,242
100%
russia.gif
sergei2327 писал(а): Перейти к сообщению
НЕ впечатлило.

Наверно потому что Дания.
P.S. да я плохо отношусь к европейским фильмам, нам их юмор и быт не понятен.
Есть несколько стран исключение и то раз на раз. А так от людей зависит.

P.S.S. Хотел скачать, почитал, посмотрел - передумал. Да и моделька что-то не охти...
zoomx8

Online
Стаж: 6 лет 1 мес.
Сообщений: 337
Ratio: 4,054
Поблагодарили: 1
100%
russia.gif
kRONiCXXII писал(а): Перейти к сообщению
Да и моделька что-то не охти...

Не охти мягко сказано,моделька не очём.
ded00786
Стаж: 7 лет
Сообщений: 125
Ratio: 1,113
100%
chad.gif
Сиськи есть?
lexandros ®
RG NNM Club Video
Куратор Видео
 

Online
Стаж: 4 года 1 мес.
Сообщений: 2745
Ratio: 515,252
Поблагодарили: 38628
100%
russia.gif
ded00786
Откуда это у моделей?

_________________
Все исправлено? Напишите в ЛС. Ссылка на релиз в теле (а не в теме) сообщения - обязательна.
Набор модераторов в категорию Видео | Правила оформления релизов в разделе Видео | Тех. регламент размещения материалов в разделе Видео
leupar
Стаж: 10 лет 4 мес.
Сообщений: 172
Ratio: 13,331
Поблагодарили: 296
46.02%
witch.png
О, фильм просто обалденный. :да: Без выпендрёжа, гламура и софитов, самое человеческое нутро. Посмотрел на одном дыхании. Для любителей модельного жанра, шоу-биза и т.д., просто шик. Спасибо за релиз. :клево:

_________________
В зеркало смотрим не только мы. Оттуда смотрят на нас.
Маррия007
Стаж: 1 год 3 мес.
Сообщений: 1
Ratio: 1,924
58.12%
фильм про глупую малолетнюю девушку
iostashev
Стаж: 10 лет 1 мес.
Сообщений: 50
Ratio: 3,884
50.43%
Пойду лучше что-то из классики Федора Бондарчука пересмотрю))))))))
Wilso​nOsca​r​
Стаж: 5 лет 3 мес.
Сообщений: 1015
Ratio: 7,808
Поблагодарили: 187
0.71%
Маррия007 писал(а): Перейти к сообщению
фильм про глупую малолетнюю девушку


которая думала что все будет прекрасно просто гуляя по подиуму ... но не тут то было .. тут отрабатывать надо не меньше чем у дороги !!!
tshgsh
Стаж: 5 лет 6 мес.
Сообщений: 15
Ratio: 7,457
1.48%
Эээээээ, а какое отношение это имеет к фильму "Неоновый демон"?
leupar
Стаж: 10 лет 4 мес.
Сообщений: 172
Ratio: 13,331
Поблагодарили: 296
46.02%
witch.png
tshgsh писал(а): Перейти к сообщению
Эээээээ, а какое отношение это имеет к фильму "Неоновый демон"?


Та же тема. "Неоновый демон" немного по динамичнее, жёстче что ли.

_________________
В зеркало смотрим не только мы. Оттуда смотрят на нас.
Mindkilla
Стаж: 4 года 4 мес.
Сообщений: 1670
Ratio: 42,701
100%
Откуда: Amalfi
japan.gif
Не понравился. В целом предсказуемо и без какой-либо изюминки.

_________________
Если долго сидеть в интернете - наступит утроImageImage А если ещё чуть-чуть - то и осеньImageImage
донОлег
Стаж: 1 год 8 мес.
Сообщений: 2
Ratio: 28,51
98.7%
iostashev писал(а): Перейти к сообщению
Пойду лучше что-то из классики Федора Бондарчука пересмотрю))))))))

Не смешите, ребята, с каких это пор Федор Бондарчук стал классиком?!
Vitall310
Стаж: 4 года 7 мес.
Сообщений: 45
Ratio: 1,852
100%
хроник22- не Ахти, зум икс8 - нИ о чём))) комментаторы ёлки. фильм то посмотрел кто? как фильм?
Показать сообщения:   
Начать новую тему   Ответить на тему    Торрент-трекер NNM-Club -> Зарубежное кино -> Зарубежные Фильмы (HD*Rip/LQ, DVDRip, SATRip, VHSRip) Часовой пояс: GMT + 3
Страницы:  1, 2  След.
Страница 1 из 2