Интеллигентный торрент-трекер
canvas not supported
Нас вместе: 4 332 886

Люди Икс: Апокалипсис / X-Men: Apocalypse (2016) BDRemux [H.264/1080p] [EN / En, Du, Fr, Ger, It, Tur Sub]


 
 
RSS
Начать новую тему   Ответить на тему    Торрент-трекер NNM-Club -> Зарубежное кино -> Фильмы в оригинале (HD)
Автор Сообщение
smaster67 ®
Модератор Видео
Покровитель талантов Uploader 300+
Стаж: 8 лет
Сообщений: 6666
Ratio: 202,414
Поблагодарили: 193925
100%
Люди Икс: Апокалипсис / X-Men: Apocalypse (2016) BDRemux [H.264/1080p] [EN / En, Du, Fr, Ger, It, Tur Sub]

Производство: США
Жанр: фантастика, боевик, приключения

Режиссер: Брайан Сингер
Актеры: Джеймс МакЭвой, Майкл Фассбендер, Дженнифер Лоуренс, Николас Холт, Оскар Айзек, Роуз Бирн, Эван Питерс, Джош Хелман, Софи Тернер, Тай Шеридан, Лукас Тилл, Коди Смит-МакФи

Описание:
События «Дней Минувшего Будущего» оказали колоссальное влияние на мир, где мутанты и люди борются за свое место под Солнцем. В это нелегкое время Людям Икс предстоит столкнуться со своим самым опасным противником - древним мутантом Апокалипсисом, существом, схватка с которым может стать последней не только для мутантов, но и в принципе для всего человечества. В поисках способа победы над неуязвимым и бессмертным монстром Людям Икс предстоит узнать больше о происхождении своего вида. Но Апокалипсис неимоверно силен, и вероятность победы все уменьшается, ведь он твердо убежден, что только сильнейшие имеют право на выживание...



Продолжительность: 02:23:56
Качество видео: BDRemux
Перевод: Отсутствует
Язык озвучки: Английский
Язык субтитров: английский, нидерландский, французский, немецкий, итальянский, турецкий
Вид субтитров: Вшитые

Видео: AVC, 1920x1080 (16:9), 23422 kbps, 23,976 fps, 0,471 bpp
Аудио: английский / DTS-HD / 48 kHz / 5216 kbps / 24 bit
Код: выделить все
General
Unique ID                            X-Men Apocalypse 2016 1080p Blu-ray Remux AVC DTS-HD MA 7.1 - KRaLiMaRKo\X-Men Apocalypse 2016 1080p Blu-ray Remux AVC DTS-HD MA 7.1 - KRaLiMaRKo.mkv
Format                                   : Matroska
Format version                           : Version 4 / Version 2
File size                                : 28.9 GiB
Duration                                 : 2 h 23 min
Overall bit rate mode                    : Variable
Overall bit rate                         : 28.8 Mb/s
Movie name                               : X-Men Apocalypse 2016 1080p Blu-ray Remux AVC DTS-HD MA 7.1 - KRaLiMaRKo
Encoded date                             : UTC 2016-09-09 06:22:08
Writing application                      : mkvmerge v9.4.0 ('Knurl') 64bit
Writing library                          : libebml v1.3.4 + libmatroska v1.4.5

Video
ID                                       : 1
Format                                   : AVC
Format/Info                              : Advanced Video Codec
Format profile                           : High@L4.1
Format settings, CABAC                   : Yes
Format settings, ReFrames                : 4 frames
Codec ID                                 : V_MPEG4/ISO/AVC
Duration                                 : 2 h 23 min
Bit rate mode                            : Variable
Bit rate                                 : 23.4 Mb/s
Maximum bit rate                         : 34.0 Mb/s
Width                                    : 1 920 pixels
Height                                   : 1 080 pixels
Display aspect ratio                     : 16:9
Frame rate mode                          : Constant
Frame rate                               : 23.976 (24000/1001) FPS
Color space                              : YUV
Chroma subsampling                       : 4:2:0
Bit depth                                : 8 bits
Scan type                                : Progressive
Bits/(Pixel*Frame)                       : 0.471
Stream size                              : 23.5 GiB (81%)
Language                                 : English
Default                                  : Yes
Forced                                   : No

Audio
ID                                       : 2
Format                                   : DTS
Format/Info                              : Digital Theater Systems
Format profile                           : MA / ES Matrix / Core
Mode                                     : 16
Format settings, Endianness              : Big
Codec ID                                 : A_DTS
Duration                                 : 2 h 23 min
Bit rate mode                            : Variable / Constant / Constant
Bit rate                                 : 5 216 kb/s / 1 509 kb/s / 1 509 kb/s
Channel(s)                               : 8 channels / 7 channels / 6 channels
Channel positions                        : Front: L C R, Side: L R, Back: L R, LFE / Front: L C R, Side: L R, Back: C, LFE / Front: L C R, Side: L R, LFE
Sampling rate                            : 48.0 kHz
Frame rate                               : 93.750 FPS (512 spf)
Bit depth                                : 24 bits
Compression mode                         : Lossless / Lossy / Lossy
Stream size                              : 5.24 GiB (18%)
Language                                 : English
Default                                  : Yes
Forced                                   : No

Text #1
ID                                       : 3
Format                                   : PGS
Codec ID                                 : S_HDMV/PGS
Codec ID/Info                            : Picture based subtitle format used on BDs/HD-DVDs
Duration                                 : 2 h 12 min
Bit rate                                 : 25.1 kb/s
Count of elements                        : 2916
Stream size                              : 23.7 MiB (0%)
Language                                 : English
Default                                  : No
Forced                                   : No

Text #2
ID                                       : 4
Format                                   : PGS
Codec ID                                 : S_HDMV/PGS
Codec ID/Info                            : Picture based subtitle format used on BDs/HD-DVDs
Duration                                 : 2 h 22 min
Bit rate                                 : 20.1 kb/s
Count of elements                        : 2478
Stream size                              : 20.5 MiB (0%)
Language                                 : Dutch
Default                                  : No
Forced                                   : No

Text #3
ID                                       : 5
Format                                   : PGS
Codec ID                                 : S_HDMV/PGS
Codec ID/Info                            : Picture based subtitle format used on BDs/HD-DVDs
Duration                                 : 2 h 22 min
Bit rate                                 : 18.5 kb/s
Count of elements                        : 2612
Stream size                              : 18.9 MiB (0%)
Language                                 : French
Default                                  : No
Forced                                   : No

Text #4
ID                                       : 6
Format                                   : PGS
Codec ID                                 : S_HDMV/PGS
Codec ID/Info                            : Picture based subtitle format used on BDs/HD-DVDs
Duration                                 : 2 h 22 min
Bit rate                                 : 23.1 kb/s
Count of elements                        : 2830
Stream size                              : 23.6 MiB (0%)
Language                                 : German
Default                                  : No
Forced                                   : No

Text #5
ID                                       : 7
Format                                   : PGS
Codec ID                                 : S_HDMV/PGS
Codec ID/Info                            : Picture based subtitle format used on BDs/HD-DVDs
Duration                                 : 2 h 22 min
Bit rate                                 : 22.6 kb/s
Count of elements                        : 2934
Stream size                              : 23.1 MiB (0%)
Language                                 : Italian
Default                                  : No
Forced                                   : No

Text #6
ID                                       : 8
Format                                   : PGS
Codec ID                                 : S_HDMV/PGS
Codec ID/Info                            : Picture based subtitle format used on BDs/HD-DVDs
Duration                                 : 2 h 22 min
Bit rate                                 : 22.9 kb/s
Count of elements                        : 2934
Stream size                              : 23.4 MiB (0%)
Language                                 : Turkish
Default                                  : No
Forced                                   : No

Menu
00:00:00.000                             : en:00:00:00.000
00:08:18.790                             : en:00:08:18.790
00:14:13.186                             : en:00:14:13.186
00:18:07.086                             : en:00:18:07.086
00:24:55.494                             : en:00:24:55.494
00:30:45.343                             : en:00:30:45.343
00:36:35.235                             : en:00:36:35.235
00:41:00.083                             : en:00:41:00.083
00:45:56.504                             : en:00:45:56.504
00:49:24.295                             : en:00:49:24.295
00:55:22.611                             : en:00:55:22.611
00:59:36.823                             : en:00:59:36.823
01:04:43.671                             : en:01:04:43.671
01:12:35.851                             : en:01:12:35.851
01:17:32.898                             : en:01:17:32.898
01:22:18.517                             : en:01:22:18.517
01:27:45.594                             : en:01:27:45.594
01:34:05.807                             : en:01:34:05.807
01:36:46.634                             : en:01:36:46.634
01:39:50.902                             : en:01:39:50.902
01:43:34.375                             : en:01:43:34.375
01:49:57.382                             : en:01:49:57.382
01:55:08.360                             : en:01:55:08.360
01:57:21.660                             : en:01:57:21.660
02:03:50.548                             : en:02:03:50.548
02:07:56.711                             : en:02:07:56.711
02:10:59.101                             : en:02:10:59.101
02:12:54.091                             : en:02:12:54.091

Скриншоты:



Время раздачи: с 13:00 до 23:00
[NNMClub.to]_X-Men Apocalypse 2016 1080p Blu-ray Remux AVC DTS-HD MA 7.1 - KRaLiMaRKo.mkv.torrent
 Торрент: Золотая раздача  Зарегистрирован
 
Примагнититься

Зарегистрируйтесь и скачайте торрент!
145 KB
 Зарегистрирован:   09 Сен 2016 17:16:40
 Размер:   28,9 GB  (
 Рейтинг:    (Голосов: 7)
 Поблагодарили:   48
 Проверка:   Оформление проверено модератором 09 Сен 2016 17:18:21
Как cкачать  ·  Как раздать  ·  Правильно оформить  ·  Поднять ратио!  
Показать сообщения:   
Начать новую тему   Ответить на тему    Торрент-трекер NNM-Club -> Зарубежное кино -> Фильмы в оригинале (HD) Часовой пояс: GMT + 3
Страница 1 из 1