Интеллигентный торрент-трекер
canvas not supported
Нас вместе: 4 331 115

Полтора шпиона / Central Intelligence (2016) BDRip [H.264/1080p][Unrated] [EN / EN, Fr, Sp Sub]


 
 
RSS
Начать новую тему   Ответить на тему    Торрент-трекер NNM-Club -> Зарубежное кино -> Фильмы в оригинале (HD)
Автор Сообщение
smaster67 ®
Модератор Видео
Покровитель талантов Uploader 300+
Стаж: 8 лет
Сообщений: 6668
Ratio: 202,663
Поблагодарили: 194079
100%
Полтора шпиона / Central Intelligence (2016) BDRip [H.264/1080p][Unrated] [EN / EN, Fr, Sp Sub]

Производство: США
Жанр: боевик, комедия, криминал

Режиссер: Роусон Маршалл Тёрбер
Актеры: Дуэйн Джонсон, Кевин Харт, Эми Райан, Даниэль Николет, Джейсон Бейтман, Аарон Пол, Райан Хансен, Тим Гриффин, Тимоти Джон Смит, Сион Келепи, Дилан Бойяк, Томас Кречман

Описание:
От лайка в соцсети до спасения мира - один шаг. Сегодня ты френдишь бывшего одноклассника, а завтра - он тащит тебя под пули. Кто ж знал, что заядлый любитель пончиков превратится в похожего на скалу супершпиона.



Продолжительность: 01:56:26
Качество видео: BDRip 1080p
Перевод: Отсутствует
Язык озвучки: Английский
Язык субтитров: английский, французский, испанский
Вид субтитров: Вшитые

Видео: AVC, 1920x808 (2.40:1), 9242 kbps, 23,976 fps, 0,248 bpp
Аудио: английский / DTS / 5.1 / 48 kHz / 1509 kbps / 24 bit
Код: выделить все
General
Unique ID                            Central.Intelligence.2016.1080p.mkv
Format                                   : Matroska
Format version                           : Version 4 / Version 2
File size                                : 8.76 GiB
Duration                                 : 1 h 56 min
Overall bit rate                         : 10.8 Mb/s
Encoded date                             : UTC 2016-09-13 04:26:33
Writing application                      : mkvmerge v7.5.0 ('Glass Culture') 64bit built on Jan  4 2015 16:48:44
Writing library                          : libebml v1.3.1 + libmatroska v1.4.2

Video
ID                                       : 1
Format                                   : AVC
Format/Info                              : Advanced Video Codec
Format profile                           : High@L4.1
Format settings, CABAC                   : Yes
Format settings, ReFrames                : 5 frames
Codec ID                                 : V_MPEG4/ISO/AVC
Duration                                 : 1 h 56 min
Bit rate                                 : 9 242 kb/s
Width                                    : 1 920 pixels
Height                                   : 808 pixels
Display aspect ratio                     : 2.40:1
Frame rate mode                          : Constant
Frame rate                               : 23.976 FPS
Color space                              : YUV
Chroma subsampling                       : 4:2:0
Bit depth                                : 8 bits
Scan type                                : Progressive
Bits/(Pixel*Frame)                       : 0.248
Stream size                              : 7.51 GiB (86%)
Writing library                          : x264 core 148 r2692 64f4e24
Encoding settings                        : cabac=1 / ref=5 / deblock=1:0:0 / analyse=0x3:0x133 / me=umh / subme=7 / psy=1 / psy_rd=1.00:0.00 / mixed_ref=1 / me_range=16 / chroma_me=1 / trellis=1 / 8x8dct=1 / cqm=0 / deadzone=21,11 / fast_pskip=0 / chroma_qp_offset=-2 / threads=18 / lookahead_threads=3 / sliced_threads=0 / nr=0 / decimate=1 / interlaced=0 / bluray_compat=0 / constrained_intra=0 / bframes=3 / b_pyramid=2 / b_adapt=1 / b_bias=0 / direct=1 / weightb=1 / open_gop=0 / weightp=2 / keyint=250 / keyint_min=23 / scenecut=40 / intra_refresh=0 / rc_lookahead=40 / rc=2pass / mbtree=1 / bitrate=9242 / ratetol=1.0 / qcomp=0.60 / qpmin=0 / qpmax=69 / qpstep=4 / cplxblur=20.0 / qblur=0.5 / ip_ratio=1.40 / aq=1:1.00
Language                                 : English
Default                                  : Yes
Forced                                   : No

Audio
ID                                       : 2
Format                                   : DTS
Format/Info                              : Digital Theater Systems
Mode                                     : 16
Format settings, Endianness              : Big
Codec ID                                 : A_DTS
Duration                                 : 1 h 56 min
Bit rate mode                            : Constant
Bit rate                                 : 1 509 kb/s
Channel(s)                               : 6 channels
Channel positions                        : Front: L C R, Side: L R, LFE
Sampling rate                            : 48.0 kHz
Frame rate                               : 93.750 FPS (512 spf)
Bit depth                                : 24 bits
Compression mode                         : Lossy
Stream size                              : 1.23 GiB (14%)
Language                                 : English
Default                                  : Yes
Forced                                   : No

Text #1
ID                                       : 3
Format                                   : VobSub
Muxing mode                              : zlib
Codec ID                                 : S_VOBSUB
Codec ID/Info                            : Picture based subtitle format used on DVDs
Duration                                 : 1 h 56 min
Bit rate                                 : 8 668 b/s
Count of elements                        : 2513
Stream size                              : 7.21 MiB (0%)
Language                                 : English
Default                                  : Yes
Forced                                   : No

Text #2
ID                                       : 4
Format                                   : VobSub
Muxing mode                              : zlib
Codec ID                                 : S_VOBSUB
Codec ID/Info                            : Picture based subtitle format used on DVDs
Duration                                 : 1 h 55 min
Bit rate                                 : 6 683 b/s
Count of elements                        : 2338
Stream size                              : 5.51 MiB (0%)
Language                                 : French
Default                                  : No
Forced                                   : No

Text #3
ID                                       : 5
Format                                   : VobSub
Muxing mode                              : zlib
Codec ID                                 : S_VOBSUB
Codec ID/Info                            : Picture based subtitle format used on DVDs
Duration                                 : 1 h 55 min
Bit rate                                 : 7 331 b/s
Count of elements                        : 2311
Stream size                              : 6.05 MiB (0%)
Language                                 : Spanish
Default                                  : No
Forced                                   : No

Text #4
ID                                       : 6
Format                                   : VobSub
Muxing mode                              : zlib
Codec ID                                 : S_VOBSUB
Codec ID/Info                            : Picture based subtitle format used on DVDs
Duration                                 : 1 h 55 min
Bit rate                                 : 157 b/s
Count of elements                        : 42
Stream size                              : 133 KiB (0%)
Language                                 : French
Default                                  : No
Forced                                   : No

Text #5
ID                                       : 7
Format                                   : VobSub
Muxing mode                              : zlib
Codec ID                                 : S_VOBSUB
Codec ID/Info                            : Picture based subtitle format used on DVDs
Duration                                 : 1 h 55 min
Bit rate                                 : 155 b/s
Count of elements                        : 49
Stream size                              : 131 KiB (0%)
Language                                 : Spanish
Default                                  : No
Forced                                   : No

Menu
00:00:00.000                             : en:00:00:00.000
00:09:32.238                             : en:00:09:32.238
00:21:47.848                             : en:00:21:47.848
00:32:26.861                             : en:00:32:26.861
00:47:37.104                             : en:00:47:37.104
00:57:28.528                             : en:00:57:28.528
01:03:15.750                             : en:01:03:15.750
01:17:23.222                             : en:01:17:23.222
01:26:11.541                             : en:01:26:11.541
01:36:29.992                             : en:01:36:29.992
01:48:21.411                             : en:01:48:21.411

Скриншоты:



Время раздачи: с 13:00 до 23:00
[NNMClub.to]_Central.Intelligence.2016.1080p.mkv.torrent
 Торрент: Золотая раздача  Зарегистрирован
 
Примагнититься
Free Leech
Зарегистрируйтесь и скачайте торрент!
44 KB
 Зарегистрирован:   13 Сен 2016 07:42:22
 Размер:   8,76 GB  (
 Рейтинг:   3,9 (Голосов: 13)
 Поблагодарили:   50
 Проверка:   Оформление проверено модератором 13 Сен 2016 07:43:01
Как cкачать  ·  Как раздать  ·  Правильно оформить  ·  Поднять ратио!  
Full HD Video
Uploader 100+
 
Стаж: 6 лет 3 мес.
Сообщений: 5362
Ratio: 1208,428
Раздал: 189,9 TB
Поблагодарили: 711077
100%
Откуда: Из мира кино.
nnm-club.gif
Это расширенная версия?
karfa​gen19​75​
Стаж: 6 лет 7 мес.
Сообщений: 1347
Ratio: 43,839
Раздал: 25,76 TB
Поблагодарили: 71701
100%
Откуда: планета Земля
russia.gif
Full HD Video писал(а): Перейти к сообщению
Это расширенная версия?

А по названию в шапке и продолжительности понять нельзя..?
Это расширенная, а на "блюрике" две версии, театральная и эта...
Дубляж у нас только на театралку, расширенная для тех кто знает язык.
Показать сообщения:   
Начать новую тему   Ответить на тему    Торрент-трекер NNM-Club -> Зарубежное кино -> Фильмы в оригинале (HD) Часовой пояс: GMT + 3
Страница 1 из 1