Интеллигентный торрент-трекер
canvas not supported
Нас вместе: 4 348 205

Отмель / The Shallows (2016) BDRemux [H.264/1080p] [EN / EN, Sp Sub]


 
 
RSS
Начать новую тему   Ответить на тему    Торрент-трекер NNM-Club -> Зарубежное кино -> Фильмы в оригинале (HD)
Автор Сообщение
smaster67 ®
Модератор Видео
Покровитель талантов Uploader 300+
Стаж: 7 лет 10 мес.
Сообщений: 6629
Ratio: 198,774
Поблагодарили: 192394
100%
Отмель / The Shallows (2016) BDRemux [H.264/1080p] [EN / EN, Sp Sub]

Производство: США
Жанр: ужасы, триллер, драма

Режиссер: Хауме Кольет-Серра
Актеры: Блейк Лайвли, Оскар Хаэнада, Бретт Каллен, Седона Ледже, Пабло Кальва, Диего Эспехель, Джанелл Бэйли, Ава Дин, Челси Муди, Салли Сигалл

Описание:
Бескрайний океан, безлюдный пляж и идеальная погода для серфингистов в поисках хорошей волны. Казалось бы, ничто не предвещает беды для очаровательной любительницы серфинга в одиночку. Разве что свидание тет-а-тет с гигантской акулой, которая загонит спортсменку на песчаную отмель и не отступит до тех пор, пока не получит своё.



Продолжительность: 01:26:16
Качество видео: BDRemux
Перевод: Отсутствует
Язык озвучки: Английский
Язык субтитров: английский, испанский
Вид субтитров: Вшитые

Видео: AVC, 1920x1080 (16:9), 24892 kbps, 23,976 fps, 0,501 bpp
Аудио: английский / DTS-HD / 5.1 / 48 kHz / 3840 kbps / 24 bit (Core: 5.1 / 48 kHz / 1509 kbps / 24 bit)
Код:
General
Unique ID                                The.Shallows.2016.BluRay.1080p.DTS-HD.MA.5.1.AVC.REMUX-FraMeSToR\The.Shallows.2016.BluRay.1080p.DTS-HD.MA.5.1.AVC.REMUX-FraMeSToR.mkv
Format                                   : Matroska
Format version                           : Version 4 / Version 2
File size                                : 17.4 GiB
Duration                                 : 1 h 26 min
Overall bit rate mode                    : Variable
Overall bit rate                         : 28.8 Mb/s
Movie name                               : The Shallows
Encoded date                             : UTC 2016-09-13 11:33:16
Writing application                      : mkvmerge v9.4.2 ('So High') 64bit
Writing library                          : libebml v1.3.4 + libmatroska v1.4.5

Video
ID                                       : 1
Format                                   : AVC
Format/Info                              : Advanced Video Codec
Format profile                           : High@L4.1
Format settings, CABAC                   : Yes
Format settings, ReFrames                : 2 frames
Format settings, GOP                     : M=1, N=10
Codec ID                                 : V_MPEG4/ISO/AVC
Duration                                 : 1 h 26 min
Bit rate mode                            : Variable
Bit rate                                 : 24.9 Mb/s
Width                                    : 1 920 pixels
Height                                   : 1 080 pixels
Display aspect ratio                     : 16:9
Frame rate mode                          : Constant
Frame rate                               : 23.976 (24000/1001) FPS
Color space                              : YUV
Chroma subsampling                       : 4:2:0
Bit depth                                : 8 bits
Scan type                                : Progressive
Bits/(Pixel*Frame)                       : 0.501
Stream size                              : 15.0 GiB (86%)
Default                                  : Yes
Forced                                   : No

Audio
ID                                       : 2
Format                                   : DTS
Format/Info                              : Digital Theater Systems
Format profile                           : MA / Core
Mode                                     : 16
Format settings, Endianness              : Big
Codec ID                                 : A_DTS
Duration                                 : 1 h 26 min
Bit rate mode                            : Variable / Constant
Bit rate                                 : 3 840 kb/s / 1 509 kb/s
Channel(s)                               : 6 channels
Channel positions                        : Front: L C R, Side: L R, LFE
Sampling rate                            : 48.0 kHz
Frame rate                               : 93.750 FPS (512 spf)
Bit depth                                : 24 bits
Compression mode                         : Lossless / Lossy
Stream size                              : 2.33 GiB (13%)
Title                                    : DTS-HD MA 5.1
Language                                 : English
Default                                  : Yes
Forced                                   : No

Text #1
ID                                       : 3
Format                                   : PGS
Codec ID                                 : S_HDMV/PGS
Codec ID/Info                            : Picture based subtitle format used on BDs/HD-DVDs
Duration                                 : 1 h 17 min
Bit rate                                 : 11.5 kb/s
Count of elements                        : 892
Stream size                              : 6.36 MiB (0%)
Title                                    : English
Language                                 : English
Default                                  : Yes
Forced                                   : No

Text #2
ID                                       : 4
Format                                   : PGS
Codec ID                                 : S_HDMV/PGS
Codec ID/Info                            : Picture based subtitle format used on BDs/HD-DVDs
Duration                                 : 1 h 25 min
Bit rate                                 : 17.9 kb/s
Count of elements                        : 1847
Stream size                              : 10.9 MiB (0%)
Title                                    : English (SDH)
Language                                 : English
Default                                  : No
Forced                                   : No

Text #3
ID                                       : 5
Format                                   : PGS
Codec ID                                 : S_HDMV/PGS
Codec ID/Info                            : Picture based subtitle format used on BDs/HD-DVDs
Duration                                 : 1 h 19 min
Bit rate                                 : 10.0 kb/s
Count of elements                        : 726
Stream size                              : 5.67 MiB (0%)
Title                                    : Spanish (Latin American)
Language                                 : Spanish
Default                                  : No
Forced                                   : No

Menu
00:00:00.000                             : en:Chapter 1
00:08:09.697                             : en:Chapter 2
00:15:10.409                             : en:Chapter 3
00:20:31.939                             : en:Chapter 4
00:25:45.877                             : en:Chapter 5
00:30:07.055                             : en:Chapter 6
00:36:04.120                             : en:Chapter 7
00:40:39.687                             : en:Chapter 8
00:45:41.613                             : en:Chapter 9
00:49:32.219                             : en:Chapter 10
00:55:57.979                             : en:Chapter 11
01:01:21.511                             : en:Chapter 12
01:06:22.561                             : en:Chapter 13
01:09:57.443                             : en:Chapter 14
01:13:38.705                             : en:Chapter 15
01:19:01.486                             : en:Chapter 16

Скриншоты:



Время раздачи: с 13:00 до 23:00
[NNMClub.to]_The.Shallows.2016.BluRay.1080p.DTS-HD.MA.5.1.AVC.REMUX-FraMeSToR.mkv.torrent
 Торрент: Золотая раздача  Зарегистрирован
 
Примагнититься
Free Leech
Зарегистрируйтесь и скачайте торрент!
87 KB
 Зарегистрирован:   13 Сен 2016 20:41:51
 Размер:   17,4 GB  (
 Рейтинг:    (Голосов: 8)
 Поблагодарили:   34
 Проверка:   Оформление проверено модератором 13 Сен 2016 20:42:38
Как cкачать  ·  Как раздать  ·  Правильно оформить  ·  Поднять ратио!  
Загрузка...
grif24
Стаж: 5 лет 7 мес.
Сообщений: 22
Ratio: 5,335
6.36%
russia.gif
это лажа Цензура , не тратьте время!
Показать сообщения:   
Начать новую тему   Ответить на тему    Торрент-трекер NNM-Club -> Зарубежное кино -> Фильмы в оригинале (HD) Часовой пояс: GMT + 3
Страница 1 из 1