Интеллигентный торрент-трекер
canvas not supported
Нас вместе: 4 103 766

Ярость 3 / Rampage: President Down (2016) BDRemux [H.264/1080p] [EN / Du, Ge Sub]


 
 
RSS
Начать новую тему   Ответить на тему    Торрент-трекер NNM-Club -> Зарубежное кино -> Фильмы в оригинале (HD)
Автор Сообщение
smaster67 ®
Модератор Видео
Покровитель талантов Uploader 300+
Стаж: 7 лет 5 мес.
Сообщений: 6258
Ratio: 180,063
Поблагодарили: 173768
100%
Ярость 3 / Rampage: President Down (2016) BDRemux [H.264/1080p] [EN / Du, Ge Sub]

Производство: Канада
Жанр: боевик, триллер, криминал

Режиссер: Уве Болл
Актеры: Мэтт Фрюэр, Брендан Флетчер, Райан МакДонелл, Стив Бэран, Брюс Блэйн, Михаэлла Манн, Скотт Пате, Виктор Формоса, Ральф Штайгер

Описание:
Продолжение кровавой истории идейного убийцы Билла Уильямсона. Вдохновившись новостными репортажами, неуловимый каратель начинает новую расправу над обществом, которое изжило себя и нуждается в адовой встряске.



Продолжительность: 01:39:45
Качество видео: BDRemux
Перевод: Отсутствует
Язык озвучки: Английский
Язык субтитров: немецкий, нидерландский
Вид субтитров: Вшитые

Видео: AVC, 1920x1080 (16:9), 17986 kbps, 23,976 fps, 0,362 bpp
Аудио №1: английский / DTS-HD / 5.1 / 48 kHz / 2048 kbps / 16 bit (Core: 5.1 / 48 kHz / 1509 kbps / 16 bit)
Аудио №2: английский / AC3 / 2.0 / 48 kHz / 224 kbps /
Код:
General
Unique ID                        Rampage.President.Down.2016.BluRay.1080p.DTS-HD.MA.5.1.AVC.REMUX-FraMeSToR\Rampage.President.Down.2016.BluRay.1080p.DTS-HD.MA.5.1.AVC.REMUX-FraMeSToR.mkv
Format                                   : Matroska
Format version                           : Version 4 / Version 2
File size                                : 14.2 GiB
Duration                                 : 1 h 39 min
Overall bit rate mode                    : Variable
Overall bit rate                         : 20.4 Mb/s
Movie name                               : Rampage: President Down
Encoded date                             : UTC 2016-09-14 20:22:40
Writing application                      : mkvmerge v9.4.2 ('So High') 64bit
Writing library                          : libebml v1.3.4 + libmatroska v1.4.5

Video
ID                                       : 1
Format                                   : AVC
Format/Info                              : Advanced Video Codec
Format profile                           : High@L4.1
Format settings, CABAC                   : Yes
Format settings, ReFrames                : 3 frames
Codec ID                                 : V_MPEG4/ISO/AVC
Duration                                 : 1 h 39 min
Bit rate mode                            : Variable
Bit rate                                 : 18.0 Mb/s
Maximum bit rate                         : 35.0 Mb/s
Width                                    : 1 920 pixels
Height                                   : 1 080 pixels
Display aspect ratio                     : 16:9
Frame rate mode                          : Constant
Frame rate                               : 23.976 (24000/1001) FPS
Color space                              : YUV
Chroma subsampling                       : 4:2:0
Bit depth                                : 8 bits
Scan type                                : Progressive
Bits/(Pixel*Frame)                       : 0.362
Stream size                              : 12.5 GiB (88%)
Default                                  : Yes
Forced                                   : No

Audio #1
ID                                       : 2
Format                                   : DTS
Format/Info                              : Digital Theater Systems
Format profile                           : MA / Core
Mode                                     : 16
Format settings, Endianness              : Big
Codec ID                                 : A_DTS
Duration                                 : 1 h 39 min
Bit rate mode                            : Variable / Constant
Bit rate                                 : 2 048 kb/s / 1 509 kb/s
Channel(s)                               : 6 channels
Channel positions                        : Front: L C R, Side: L R, LFE
Sampling rate                            : 48.0 kHz
Frame rate                               : 93.750 FPS (512 spf)
Bit depth                                : 16 bits
Compression mode                         : Lossless / Lossy
Stream size                              : 1.44 GiB (10%)
Title                                    : DTS-HD MA 5.1
Language                                 : English
Default                                  : Yes
Forced                                   : No

Audio #2
ID                                       : 3
Format                                   : AC-3
Format/Info                              : Audio Coding 3
Mode extension                           : CM (complete main)
Format settings, Endianness              : Big
Codec ID                                 : A_AC3
Duration                                 : 1 h 39 min
Bit rate mode                            : Constant
Bit rate                                 : 224 kb/s
Channel(s)                               : 2 channels
Channel positions                        : Front: L R
Sampling rate                            : 48.0 kHz
Frame rate                               : 31.250 FPS (1536 spf)
Compression mode                         : Lossy
Stream size                              : 160 MiB (1%)
Title                                    : Commentary by Uwe Boll/Brendan Fletcher
Language                                 : English
Default                                  : No
Forced                                   : No

Text #1
ID                                       : 4
Format                                   : PGS
Codec ID                                 : S_HDMV/PGS
Codec ID/Info                            : Picture based subtitle format used on BDs/HD-DVDs
Duration                                 : 1 h 35 min
Bit rate                                 : 75.8 kb/s
Count of elements                        : 2325
Stream size                              : 51.7 MiB (0%)
Title                                    : German
Language                                 : German
Default                                  : No
Forced                                   : No

Text #2
ID                                       : 5
Format                                   : PGS
Codec ID                                 : S_HDMV/PGS
Codec ID/Info                            : Picture based subtitle format used on BDs/HD-DVDs
Duration                                 : 1 h 35 min
Bit rate                                 : 67.6 kb/s
Count of elements                        : 2283
Stream size                              : 46.2 MiB (0%)
Title                                    : Dutch
Language                                 : Dutch
Default                                  : No
Forced                                   : No

Menu
00:00:00.000                             : en:Chapter 01
00:08:45.191                             : en:Chapter 02
00:16:58.976                             : en:Chapter 03
00:26:00.767                             : en:Chapter 04
00:31:53.953                             : en:Chapter 05
00:40:29.051                             : en:Chapter 06
00:49:43.438                             : en:Chapter 07
00:58:22.707                             : en:Chapter 08
01:06:33.322                             : en:Chapter 09
01:13:15.391                             : en:Chapter 10
01:24:04.164                             : en:Chapter 11
01:33:26.017                             : en:Chapter 12

Скриншоты:



Время раздачи: с 13:00 до 23:00
[NNMClub.to]_Rampage.President.Down.2016.BluRay.1080p.DTS-HD.MA.5.1.AVC.REMUX-FraMeSToR.mkv.torrent
 Торрент: Золотая раздача  Зарегистрирован
 
Примагнититься
Free Leech
Зарегистрируйтесь и скачайте торрент!
71,4 KB
 Зарегистрирован:   15 Сен 2016 20:46:45
 Размер:   14,2 GB  (
 Рейтинг:    (Голосов: 9)
 Поблагодарили:   55
 Проверка:   Оформление проверено модератором 15 Сен 2016 20:47:52
Как cкачать  ·  Как раздать  ·  Правильно оформить  ·  Поднять ратио!  
Andy_​Steel​er​
Стаж: 6 лет 5 мес.
Сообщений: 33
Ratio: 13,818
5.66%
russia.gif
Уве Болл это диагноз :мегашок:
Зорге
Стаж: 5 лет 7 мес.
Сообщений: 108
Ratio: 3,891
Поблагодарили: 9221
13.1%
japan.gif
Ярость президента дауна
sogarez
Стаж: 6 лет 3 мес.
Сообщений: 4
Ratio: 62,942
100%
Вот не стоит гнать на Болла. Первая часть Rampage была шедевральна.
ip6
Стаж: 2 мес. 18 дней
Сообщений: 6
Ratio: 4,512
Раздал: 14,2 GB
100%
Эх с переводом бы глянуть! но спасибо за качественный релиз фильм стал более серьезным но это плюс чем минус но слабее чем 1 и 2 фильм
serp66613
Стаж: 6 лет 6 мес.
Сообщений: 43
Ratio: 1,238
0.52%
ussr.gif
Фильм конечно крутой, но нужен перевод. Слишком уж много говорильни.
senator56
Стаж: 6 лет 9 мес.
Сообщений: 186
Ratio: 6,502
Поблагодарили: 22
9.15%
ussr.gif
sogarez писал(а): Перейти к сообщению
Вот не стоит гнать на Болла. Первая часть Rampage была шедевральна.
Шедевральна первая часть????? Шедевр заключается в том что какой то хуе*лет лишает жизни массу народу,если и кто повинен в чем то то он перед господом богом ответит, но никак не перед этим утырком!!! Тот кто писал комент рекомендую смотреть "Трансформеров" и не парится. Фильм расчитан что первый что думаю и второй на тупую молодежь. Реальный случай как не нужно делать.

_________________
Экономьте электричество! Выключайте Num Lock!
Dieman666
Стаж: 3 года
Сообщений: 10
Ratio: 3,388
0%
senator56
кароч смысл не дошёл ,чел, ты свободен)...
Breezez
Стаж: 4 года 6 мес.
Сообщений: 7
Ratio: 12,193
0.47%
Обе части в коллекции, - фильмы достойные. Не знаю, как другим, но, Дольф Лундгрен, не потянул бы этот фильм (ему не понравился сценарий и асоциальность фильма), - это о первой части. А в дальнейшем... коней на переправе не меняют.
Показать сообщения:   
Начать новую тему   Ответить на тему    Торрент-трекер NNM-Club -> Зарубежное кино -> Фильмы в оригинале (HD) Часовой пояс: GMT + 3
Страница 1 из 1