Интеллигентный торрент-трекер
canvas not supported
Нас вместе: 4 191 209

Варкрафт / Warcraft (2016) BDRip [H.264/1080p] [EN / EN, Fr, Sp, Po Sub]


 
 
RSS
Начать новую тему   Ответить на тему    Торрент-трекер NNM-Club -> Зарубежное кино -> Фильмы в оригинале (HD)
Автор Сообщение
smaster67 ®
Модератор Видео
Покровитель талантов Uploader 300+
Стаж: 7 лет 6 мес.
Сообщений: 6383
Ratio: 186,418
Поблагодарили: 179782
100%
Варкрафт / Warcraft (2016) BDRip [H.264/1080p] [EN / EN, Fr, Sp, Po Sub]

Производство: Китай, Канада, Япония, США
Жанр: фэнтези, боевик, приключения

Режиссер: Дункан Джонс
Актеры: Трэвис Фиммел, Пола Пэттон, Бен Фостер, Доминик Купер, Тоби Кеббелл, Бен Шнетцер, Роберт Казински, Клэнси Браун, Дэниэл Ву, Рут Негга, Анна Галвин, Каллум Кит Ренни

Описание:
Веками магия и неприступные стены защищали людей от любых напастей. Но древнее зло, побежденное и забытое тысячелетия назад, пробудилось.
В самом сердце королевства открылся темный портал, и раса невиданных существ наводнила земли Азерота. Так начались события, призванные навсегда изменить судьбу этого мира.



Продолжительность: 02:03:07
Качество видео: BDRip
Перевод: Отсутствует
Язык озвучки: Английский
Язык субтитров: английский, французский, португальский, испанский
Вид субтитров: Вшитые

Видео: AVC, 1920x790 (2.40:1), 13109 kbps, 23,976 fps, 0,360 bpp
Аудио: английский / DTS-HD / 48 kHz / 4005 kbps / 24 bit
Код:
General
Unique ID                                Warcraft.2016.1080p.BluRay.DTS-HD.MA.7.1.x264-LEGi0N\Warcraft.2016.1080p.BluRay.DTS-HD.MA.7.1.x264-LEGi0N.mkv
Format                                   : Matroska
Format version                           : Version 4 / Version 2
File size                                : 14.7 GiB
Duration                                 : 2 h 3 min
Overall bit rate                         : 17.1 Mb/s
Encoded date                             : UTC 2016-09-10 15:37:02
Writing application                      : mkvmerge v9.3.1 ('Mask Machine') 64bit
Writing library                          : libebml v1.3.4 + libmatroska v1.4.5

Video
ID                                       : 1
Format                                   : AVC
Format/Info                              : Advanced Video Codec
Format profile                           : High@L4.1
Format settings, CABAC                   : Yes
Format settings, ReFrames                : 5 frames
Codec ID                                 : V_MPEG4/ISO/AVC
Duration                                 : 2 h 3 min
Bit rate                                 : 13.1 Mb/s
Width                                    : 1 920 pixels
Height                                   : 790 pixels
Display aspect ratio                     : 2.40:1
Frame rate mode                          : Constant
Frame rate                               : 23.976 (24000/1001) FPS
Color space                              : YUV
Chroma subsampling                       : 4:2:0
Bit depth                                : 8 bits
Scan type                                : Progressive
Bits/(Pixel*Frame)                       : 0.360
Stream size                              : 11.3 GiB (77%)
Writing library                          : x264 core 142 r2431+42 c69a006 tMod [8-bit@all X86_64]
Encoding settings                        : cabac=1 / ref=5 / deblock=1:-3:-3 / analyse=0x3:0x113 / me=umh / subme=11 / psy=1 / fade_compensate=0.00 / psy_rd=0.95:0.00 / mixed_ref=1 / me_range=48 / chroma_me=1 / trellis=2 / 8x8dct=1 / cqm=0 / deadzone=21,11 / fast_pskip=1 / chroma_qp_offset=-2 / threads=18 / lookahead_threads=3 / sliced_threads=0 / nr=0 / decimate=1 / interlaced=0 / bluray_compat=0 / constrained_intra=0 / fgo=0 / bframes=7 / b_pyramid=2 / b_adapt=2 / b_bias=0 / direct=1 / weightb=1 / open_gop=0 / weightp=2 / keyint=240 / keyint_min=23 / scenecut=40 / intra_refresh=0 / rc_lookahead=125 / rc=crf / mbtree=1 / crf=15.0000 / qcomp=0.60 / qpmin=0:0:0 / qpmax=69:69:69 / qpstep=4 / vbv_maxrate=30000 / vbv_bufsize=38000 / crf_max=0.0 / nal_hrd=none / filler=0 / ip_ratio=1.40 / aq=4:0.83 / aq-sensitivity=10.00 / aq-factor=1.00:1.00:1.00 / aq2=0 / aq3=0
Language                                 : English
Default                                  : Yes
Forced                                   : No
Color range                              : Limited
Color primaries                          : BT.709
Transfer characteristics                 : BT.709
Matrix coefficients                      : BT.709

Audio
ID                                       : 2
Format                                   : DTS
Format/Info                              : Digital Theater Systems
Format profile                           : MA / Core
Mode                                     : 16
Format settings, Endianness              : Big
Codec ID                                 : A_DTS
Duration                                 : 2 h 3 min
Bit rate mode                            : Variable / Constant
Bit rate                                 : 4 005 kb/s / 1 509 kb/s
Channel(s)                               : 8 channels / 6 channels
Channel positions                        : Front: L C R, Side: L R, Back: L R, LFE / Front: L C R, Side: L R, LFE
Sampling rate                            : 48.0 kHz
Frame rate                               : 93.750 FPS (512 spf)
Bit depth                                : 24 bits
Compression mode                         : Lossless / Lossy
Stream size                              : 3.44 GiB (23%)
Language                                 : English
Default                                  : Yes
Forced                                   : No

Text #1
ID                                       : 3
Format                                   : UTF-8
Codec ID                                 : S_TEXT/UTF8
Codec ID/Info                            : UTF-8 Plain Text
Duration                                 : 1 h 53 min
Bit rate                                 : 41 b/s
Count of elements                        : 1393
Stream size                              : 34.9 KiB (0%)
Language                                 : English
Default                                  : Yes
Forced                                   : No

Text #2
ID                                       : 4
Format                                   : UTF-8
Codec ID                                 : S_TEXT/UTF8
Codec ID/Info                            : UTF-8 Plain Text
Duration                                 : 2 h 1 min
Bit rate                                 : 33 b/s
Count of elements                        : 1229
Stream size                              : 29.5 KiB (0%)
Language                                 : French
Default                                  : No
Forced                                   : No

Text #3
ID                                       : 5
Format                                   : UTF-8
Codec ID                                 : S_TEXT/UTF8
Codec ID/Info                            : UTF-8 Plain Text
Duration                                 : 2 h 3 min
Bit rate                                 : 35 b/s
Count of elements                        : 1199
Stream size                              : 32.4 KiB (0%)
Language                                 : Portuguese
Default                                  : No
Forced                                   : No

Text #4
ID                                       : 6
Format                                   : UTF-8
Codec ID                                 : S_TEXT/UTF8
Codec ID/Info                            : UTF-8 Plain Text
Duration                                 : 2 h 1 min
Bit rate                                 : 34 b/s
Count of elements                        : 1171
Stream size                              : 30.9 KiB (0%)
Language                                 : Spanish
Default                                  : No
Forced                                   : No

Menu
00:00:00.000                             : en:00:00:00.000
00:09:26.483                             : en:00:09:26.483
00:15:49.407                             : en:00:15:49.407
00:22:36.146                             : en:00:22:36.146
00:29:16.171                             : en:00:29:16.171
00:38:43.321                             : en:00:38:43.321
00:46:44.093                             : en:00:46:44.093
00:53:02.679                             : en:00:53:02.679
00:56:17.332                             : en:00:56:17.332
01:02:43.927                             : en:01:02:43.927
01:07:48.314                             : en:01:07:48.314
01:12:24.549                             : en:01:12:24.549
01:17:13.045                             : en:01:17:13.045
01:22:45.669                             : en:01:22:45.669
01:26:32.145                             : en:01:26:32.145
01:32:29.669                             : en:01:32:29.669
01:40:25.102                             : en:01:40:25.102
01:47:38.118                             : en:01:47:38.118
01:51:12.833                             : en:01:51:12.833
01:53:58.832                             : en:01:53:58.832

Скриншоты:



Время раздачи: с 13:00 до 23:00
[NNMClub.to]_Warcraft.2016.1080p.BluRay.DTS-HD.MA.7.1.x264-LEGi0N.mkv.torrent
 Торрент: Золотая раздача  Зарегистрирован
 
Примагнититься

Зарегистрируйтесь и скачайте торрент!
73,8 KB
 Зарегистрирован:   18 Сен 2016 09:14:38
 Размер:   14,7 GB  (
 Рейтинг:   4,7 (Голосов: 13)
 Поблагодарили:   47
 Проверка:   Оформление проверено модератором 18 Сен 2016 09:18:57
Как cкачать  ·  Как раздать  ·  Правильно оформить  ·  Поднять ратио!  
Показать сообщения:   
Начать новую тему   Ответить на тему    Торрент-трекер NNM-Club -> Зарубежное кино -> Фильмы в оригинале (HD) Часовой пояс: GMT + 3
Страница 1 из 1