Интеллигентный торрент-трекер
canvas not supported
Нас вместе: 4 198 688

Охота на дикарей / Hunt for the Wilderpeople (2016) BDRemux [H.264/1080p] [EN / EN Sub]


 
 
RSS
Начать новую тему   Ответить на тему    Торрент-трекер NNM-Club -> Зарубежное кино -> Фильмы в оригинале (HD)
Автор Сообщение
smaster67 ®
Модератор Видео
Покровитель талантов Uploader 300+
Стаж: 7 лет 6 мес.
Сообщений: 6393
Ratio: 186,793
Поблагодарили: 180173
100%
Охота на дикарей / Hunt for the Wilderpeople (2016) BDRemux [H.264/1080p] [EN / EN Sub]

Производство: Новая Зеландия
Жанр: драма, комедия, приключения

Режиссер: Тайка Вайтити
Актеры: Сэм Нил, Джулиан Деннисон, Рима Те Вьята, Рэйчел Хаус, Оскар Кайтли, Стэн Уокер, Майк Миноуг, Коэн Холлоуэй, Риз Дэрби, Трой Кинги, Тайка Вайтити

Описание:
Рикки Бэйкер - упитанный городской хулиган. Сотрудница социальной службы Пола отвозит подростка в сельскую местность, где живёт единственная готовая принять его семья - Белла и её нелюдимый муж Гек. Когда Белла умирает и социальная защита собирается забрать Рикки, тот убегает в леса. Гек отправляется за ним. Сумасбродная Пола убеждена, что странный Гек слетел с катушек из-за смерти жены и похитил подростка. Она развязывает общенациональную охоту на мальчика и его «совратителя».



Продолжительность: 01:40:58
Качество видео: BDRemux
Перевод: Отсутствует
Язык озвучки: Английский
Язык субтитров: английский
Вид субтитров: Вшитые

Видео: AVC, 1920x1080 (16:9), 34999 kbps, 24 fps, 0,703 bpp
Аудио №1: английский / DTS-HD / 5.1 / 48 kHz / 3840 kbps / 24 bit (Core: 5.1 / 48 kHz / 1509 kbps / 24 bit)
Аудио №2: английский / AC3 / 2.0 / 48 kHz / 224 kbps /
Код:
General
Unique ID
Complete name                            Hunt.for.the.Wilderpeople.2016.BluRay.1080p.DTS-HD.MA.5.1.AVC.REMUX-FraMeSToR\Hunt.for.the.Wilderpeople.2016.BluRay.1080p.DTS-HD.MA.5.1.AVC.REMUX-FraMeSToR.mkv
Format                                   : Matroska
Format version                           : Version 4 / Version 2
File size                                : 26.5 GiB
Duration                                 : 1 h 40 min
Overall bit rate                         : 37.6 Mb/s
Movie name                               : Hunt for the Wilderpeople
Encoded date                             : UTC 2016-10-02 08:18:13
Writing application                      : mkvmerge v9.4.2 ('So High') 64bit
Writing library                          : libebml v1.3.4 + libmatroska v1.4.5

Video
ID                                       : 1
Format                                   : AVC
Format/Info                              : Advanced Video Codec
Format profile                           : High@L4.1
Format settings, CABAC                   : Yes
Format settings, ReFrames                : 4 frames
Format settings, GOP                     : M=3, N=24
Codec ID                                 : V_MPEG4/ISO/AVC
Duration                                 : 1 h 40 min
Bit rate mode                            : Constant
Bit rate                                 : 35.0 Mb/s
Width                                    : 1 920 pixels
Height                                   : 1 080 pixels
Display aspect ratio                     : 16:9
Frame rate mode                          : Constant
Frame rate                               : 24.000 FPS
Standard                                 : NTSC
Color space                              : YUV
Chroma subsampling                       : 4:2:0
Bit depth                                : 8 bits
Scan type                                : Progressive
Bits/(Pixel*Frame)                       : 0.703
Stream size                              : 23.6 GiB (89%)
Default                                  : Yes
Forced                                   : No
Color range                              : Limited
Color primaries                          : BT.709
Transfer characteristics                 : BT.709
Matrix coefficients                      : BT.709

Audio #1
ID                                       : 2
Format                                   : DTS
Format/Info                              : Digital Theater Systems
Format profile                           : MA / Core
Mode                                     : 16
Format settings, Endianness              : Big
Codec ID                                 : A_DTS
Duration                                 : 1 h 40 min
Bit rate mode                            : Variable / Constant
Bit rate                                 : 3 840 kb/s / 1 509 kb/s
Channel(s)                               : 6 channels
Channel positions                        : Front: L C R, Side: L R, LFE
Sampling rate                            : 48.0 kHz
Frame rate                               : 93.750 FPS (512 spf)
Bit depth                                : 24 bits
Compression mode                         : Lossless / Lossy
Stream size                              : 2.73 GiB (10%)
Title                                    : DTS-HD MA 5.1
Language                                 : English
Default                                  : Yes
Forced                                   : No

Audio #2
ID                                       : 3
Format                                   : AC-3
Format/Info                              : Audio Coding 3
Mode extension                           : CM (complete main)
Format settings, Endianness              : Big
Codec ID                                 : A_AC3
Duration                                 : 1 h 40 min
Bit rate mode                            : Constant
Bit rate                                 : 224 kb/s
Channel(s)                               : 2 channels
Channel positions                        : Front: L R
Sampling rate                            : 48.0 kHz
Frame rate                               : 31.250 FPS (1536 spf)
Compression mode                         : Lossy
Stream size                              : 162 MiB (1%)
Title                                    : Commentary by Taika Waititi/Sam Neill/Julian Dennison
Language                                 : English
Default                                  : No
Forced                                   : No

Text
ID                                       : 4
Format                                   : PGS
Codec ID                                 : S_HDMV/PGS
Codec ID/Info                            : Picture based subtitle format used on BDs/HD-DVDs
Duration                                 : 1 h 39 min
Bit rate                                 : 54.3 kb/s
Count of elements                        : 2834
Stream size                              : 38.7 MiB (0%)
Title                                    : English (SDH)
Language                                 : English
Default                                  : Yes
Forced                                   : No

Menu
00:00:00.000                             : en:Chapter 1
00:06:04.791                             : en:Chapter 2
00:16:58.916                             : en:Chapter 3
00:25:29.375                             : en:Chapter 4
00:36:20.041                             : en:Chapter 5
00:43:50.958                             : en:Chapter 6
00:51:02.833                             : en:Chapter 7
00:59:52.166                             : en:Chapter 8
01:08:52.208                             : en:Chapter 9
01:18:39.583                             : en:Chapter 10
01:29:48.416                             : en:Chapter 11
01:36:13.625                             : en:Chapter 12

Скриншоты:



Время раздачи: с 13:00 до 23:00
[NNMClub.to]_Hunt.for.the.Wilderpeople.2016.BluRay.1080p.DTS-HD.MA.5.1.AVC.REMUX-FraMeSToR.mkv.torrent
 Торрент: Золотая раздача  Зарегистрирован
 
Примагнититься
Free Leech
Зарегистрируйтесь и скачайте торрент!
133 KB
 Зарегистрирован:   02 Окт 2016 20:24:47
 Размер:   26,5 GB  (
 Рейтинг:    (Голосов: 8)
 Поблагодарили:   42
 Проверка:   Оформление проверено модератором 02 Окт 2016 20:25:44
Как cкачать  ·  Как раздать  ·  Правильно оформить  ·  Поднять ратио!  
Показать сообщения:   
Начать новую тему   Ответить на тему    Торрент-трекер NNM-Club -> Зарубежное кино -> Фильмы в оригинале (HD) Часовой пояс: GMT + 3
Страница 1 из 1