Интеллигентный торрент-трекер
canvas not supported
Нас вместе: 4 112 243

Имущество с хвостом / Who Gets the Dog? (2016) BDRip [H.264/1080p] [EN, Fr / Fr Sub]


 
 
RSS
Начать новую тему   Ответить на тему    Торрент-трекер NNM-Club -> Зарубежное кино -> Фильмы в оригинале (HD)
Автор Сообщение
smaster67 ®
Модератор Видео
Покровитель талантов Uploader 300+
Стаж: 7 лет 5 мес.
Сообщений: 6275
Ratio: 180,784
Поблагодарили: 174392
100%
Имущество с хвостом / Who Gets the Dog? (2016) BDRip [H.264/1080p] [EN, Fr / Fr Sub]

Производство: США
Жанр: комедия

Режиссер: Хак Ботко
Актеры: Алисия Сильверстоун, Райан Квантен, Рэндолл Батинкофф, Мишель Суини Абрамс, Рэйчел Серда, Кристин А. Доннелли, Эми Дж. Карле, Сьюзи Брэк, Мэтти Райан, Ламар Кертис, Кристофер Калер, Аста Разма

Описание:
Олив - успешный врач, Клэй - хоккеист-неудачник. Они влюбились, поженились и завели голден-ретривера. Но она мечтала о нормальной семье, а он - о спортивной карьере... И когда дело движется к разводу, бывшие возлюбленные начинают нешуточную борьбу за драгоценного питомца.



Продолжительность: 01:36:02
Качество видео: BDRip 1080p
Перевод: Отсутствует
Язык озвучки: Английский, Французский
Язык субтитров: французский
Вид субтитров: Вшитые

Видео: AVC, 1920x816 (2.35:1), 8492 kbps, 23,976 fps, 0,226 bpp
Аудио №1: французский / AC3 / 5.1 / 48 kHz / 640 kbps /
Аудио №2: английский / AC3 / 5.1 / 48 kHz / 640 kbps /
Код: выделить все
General
Complete name                            Who Gets the Dog.2016.1080p.mkv
Format                                   : Matroska
Format version                           : Version 2
File size                                : 6.56 GiB
Duration                                 : 1 h 36 min
Overall bit rate                         : 9 774 kb/s
Writing application                      : mkvmerge v6.6.0 ('The Edge Of The In Between') built on Dec 1 2013 17:55:00
Writing library                          : libebml v1.3.0 + libmatroska v1.4.1

Video
ID                                       : 1
Format                                   : AVC
Format/Info                              : Advanced Video Codec
Format profile                           : High@L4.1
Format settings, CABAC                   : Yes
Format settings, ReFrames                : 5 frames
Codec ID                                 : V_MPEG4/ISO/AVC
Duration                                 : 1 h 36 min
Bit rate                                 : 8 492 kb/s
Width                                    : 1 920 pixels
Height                                   : 816 pixels
Display aspect ratio                     : 2.35:1
Frame rate mode                          : Constant
Frame rate                               : 23.976 (24000/1001) FPS
Color space                              : YUV
Chroma subsampling                       : 4:2:0
Bit depth                                : 8 bits
Scan type                                : Progressive
Bits/(Pixel*Frame)                       : 0.226
Stream size                              : 5.57 GiB (85%)
Writing library                          : x264 core 148 r2705 3f5ed56
Encoding settings                        : cabac=1 / ref=5 / deblock=1:0:0 / analyse=0x3:0x113 / me=umh / subme=8 / psy=1 / psy_rd=1.00:0.00 / mixed_ref=1 / me_range=16 / chroma_me=1 / trellis=1 / 8x8dct=1 / cqm=0 / deadzone=21,11 / fast_pskip=1 / chroma_qp_offset=-2 / threads=12 / lookahead_threads=2 / sliced_threads=0 / nr=0 / decimate=1 / interlaced=0 / bluray_compat=0 / constrained_intra=0 / bframes=3 / b_pyramid=2 / b_adapt=2 / b_bias=0 / direct=3 / weightb=1 / open_gop=0 / weightp=2 / keyint=240 / keyint_min=24 / scenecut=40 / intra_refresh=0 / rc_lookahead=50 / rc=2pass / mbtree=1 / bitrate=8492 / ratetol=1.0 / qcomp=0.60 / qpmin=0 / qpmax=69 / qpstep=4 / cplxblur=20.0 / qblur=0.5 / ip_ratio=1.40 / aq=1:1.00
Language                                 : English
Default                                  : Yes
Forced                                   : No

Audio #1
ID                                       : 2
Format                                   : AC-3
Format/Info                              : Audio Coding 3
Mode extension                           : CM (complete main)
Format settings, Endianness              : Big
Codec ID                                 : A_AC3
Duration                                 : 1 h 36 min
Bit rate mode                            : Constant
Bit rate                                 : 640 kb/s
Channel(s)                               : 6 channels
Channel positions                        : Front: L C R, Side: L R, LFE
Sampling rate                            : 48.0 kHz
Frame rate                               : 31.250 FPS (1536 spf)
Compression mode                         : Lossy
Stream size                              : 440 MiB (7%)
Title                                    : AC3_640
Language                                 : French
Default                                  : Yes
Forced                                   : No

Audio #2
ID                                       : 3
Format                                   : AC-3
Format/Info                              : Audio Coding 3
Mode extension                           : CM (complete main)
Format settings, Endianness              : Big
Codec ID                                 : A_AC3
Duration                                 : 1 h 36 min
Bit rate mode                            : Constant
Bit rate                                 : 640 kb/s
Channel(s)                               : 6 channels
Channel positions                        : Front: L C R, Side: L R, LFE
Sampling rate                            : 48.0 kHz
Frame rate                               : 31.250 FPS (1536 spf)
Compression mode                         : Lossy
Stream size                              : 440 MiB (7%)
Title                                    : AC3_640
Language                                 : English
Default                                  : Yes
Forced                                   : No

Text #1
ID                                       : 4
Format                                   : UTF-8
Codec ID                                 : S_TEXT/UTF8
Codec ID/Info                            : UTF-8 Plain Text
Title                                    : FORCED
Language                                 : French
Default                                  : Yes
Forced                                   : Yes

Text #2
ID                                       : 5
Format                                   : UTF-8
Codec ID                                 : S_TEXT/UTF8
Codec ID/Info                            : UTF-8 Plain Text
Title                                    : French
Language                                 : French
Default                                  : No
Forced                                   : No

Text #3
ID                                       : 6
Format                                   : UTF-8
Codec ID                                 : S_TEXT/UTF8
Codec ID/Info                            : UTF-8 Plain Text
Title                                    : French SDH
Language                                 : French
Default                                  : No
Forced                                   : No

Menu
00:00:00.000                             : en:00:00:00.000
00:13:30.309                             : en:00:13:30.309
00:27:45.914                             : en:00:27:45.914
00:42:04.480                             : en:00:42:04.480
00:54:08.537                             : en:00:54:08.537
01:04:46.216                             : en:01:04:46.216
01:17:14.171                             : en:01:17:14.171
01:31:54.801                             : en:01:31:54.801

Скриншоты:



Все одноименные релизы в Клубе

Время раздачи: с 13:00 до 23:00
[NNMClub.to]_Who Gets the Dog.2016.1080p.mkv.torrent
 Торрент: Золотая раздача  Зарегистрирован
 
Примагнититься
Free Leech
Зарегистрируйтесь и скачайте торрент!
33 KB
 Зарегистрирован:   25 Окт 2016 14:10:05
 Размер:   6,56 GB  (
 Рейтинг:   4,7 (Голосов: 10)
 Поблагодарили:   43
 Проверка:   Оформление проверено модератором 25 Окт 2016 14:14:15
Как cкачать  ·  Как раздать  ·  Правильно оформить  ·  Поднять ратио!  


Последний раз редактировалось: smaster67 (25 Окт 2016 18:28:57), всего редактировалось 1 раз
Maste8nnm
Стаж: 4 года 1 мес.
Сообщений: 36
Ratio: 17,793
48.94%
Сюжет, конечно, жесть: "Они влюбились, поженились и завели.. голден-ретривера" и "возлюбленные начинают нешуточную борьбу за драгоценного питомца"

Может, всё-таки на первом месте в семье должны быть дети? Не, не слышали

Фильм - пропаганда инфантилизма, эгоизма и глупости
alic78
Стаж: 3 года 11 мес.
Сообщений: 139
Ratio: 86,622
Раздал: 9,715 TB
100%
Похоже, что это глубоко переработанная современная версия довоенной "Ужасной правды" с Кэрри Грантом и Айрин Данн в главных ролях.
billy​blank​s​
Стаж: 4 года 10 мес.
Сообщений: 2
Ratio: 2,936
0%
Maste8nnm писал(а): Перейти к сообщению
Сюжет, конечно, жесть: "Они влюбились, поженились и завели.. голден-ретривера" и "возлюбленные начинают нешуточную борьбу за драгоценного питомца"

Может, всё-таки на первом месте в семье должны быть дети? Не, не слышали

Фильм - пропаганда инфантилизма, эгоизма и глупости


Может быть каждый для себя сам должен решать, что для него на первом месте? И кино то хоть посмотрели или ограничились описанием?
begemot9
Стаж: 6 лет 4 мес.
Сообщений: 44
Ratio: 13,303
0.75%
А еслиб они стали разводиться и делить детей - это была бы пропаганда чего?
cobol82
Стаж: 5 лет 11 мес.
Сообщений: 1
Ratio: 5,969
0.33%
Maste8nnm писал(а): Перейти к сообщению
Сюжет, конечно, жесть: "Они влюбились, поженились и завели.. голден-ретривера" и "возлюбленные начинают нешуточную борьбу за драгоценного питомца"

Может, всё-таки на первом месте в семье должны быть дети? Не, не слышали

Фильм - пропаганда инфантилизма, эгоизма и глупости


Почему-то не сюжет, а именно твой коммент навёл на мысли о пропаганде инфантилизма и глупости...
Показать сообщения:   
Начать новую тему   Ответить на тему    Торрент-трекер NNM-Club -> Зарубежное кино -> Фильмы в оригинале (HD) Часовой пояс: GMT + 3
Страница 1 из 1